UK

The Royal S07E10 (21st June 2009) [HDTV 720p (x264)]

  • Download 5x Faster
  • Download torrent
  • Direct Download
  • Rate this torrent +  |  -
The Royal S07E10 (21st June 2009) [HDTV 720p (x264)]

Anonymous and free Direct Download 300GB+


Torrent info

Name:The Royal S07E10 (21st June 2009) [HDTV 720p (x264)]

Total Size: 1.09 GB

Magnet: Magnet Link

Seeds: 0

Leechers: 0

Stream: Watch Online @ Movie4u

Last Updated: 2015-08-30 10:24:53 (Update Now)

Torrent added: 2009-08-26 12:11:12



SpyOFF VPN

Torrent Files List


the.royal.s09e01.720p.hdtv-bia.nfo (Size: 1.09 GB) (Files: 2)

 the.royal.s09e01.720p.hdtv-bia.nfo

7.68 KB

 the.royal.s09e01.720p.hdtv.x264-bia.mkv

1.09 GB
 

tracker

leech seeds
 

Torrent description

This torrent was uploaded from www.TheBox.bz (signup is open and free) - the home of all British TV

The Royal   S07E10 (21st June 2009) [HDTV 720p (x264)] preview 0

The.Royal.S09E01.720p.HDTV.x264-BiA
Air Date-21 June 2009
General
Complete name : the.royal.s09e01.720p.hdtv.x264-bia.mkv
Format : Matroska
File size : 1.09 GiB
Duration : 45mn 57s
Overall bit rate : 3 403 Kbps
Encoded date : UTC 2009-06-21 19:50:04
Writing application : mkvmerge v2.4.1 ('Use Me') built on Dec 5 2008 18:30:05
Writing library : libebml v0.7.7 + libmatroska v0.8.1

Video
ID : 1
Format : AVC
Format/Info : Advanced Video Codec
Format profile : [email protected]
Format settings, CABAC : Yes
Format settings, ReFrames : 3 frames
Muxing mode : Container [email protected]
Codec ID : V_MPEG4/ISO/AVC
Duration : 45mn 57s
Bit rate : 3 079 Kbps
Nominal bit rate : 3 144 Kbps
Width : 1 280 pixels
Height : 720 pixels
Display aspect ratio : 16/9
Frame rate : 25.000 fps
Resolution : 24 bits
Colorimetry : 4:2:0
Scan type : Progressive
Bits/(Pixel*Frame) : 0.134
Stream size : 1 012 MiB (90%)
Writing library : x264 core 67 r1163M 3f56e27

Language : English

Audio
ID : 2
Format : AC-3
Format/Info : Audio Coding 3
Codec ID : A_AC3
Duration : 45mn 57s
Bit rate mode : Constant
Bit rate : 256 Kbps
Channel(s) : 2 channels
Channel positions : L R
Sampling rate : 48.0 KHz
Stream size : 84.2 MiB (8%)
Language : EnglishSEASON 09
EPiSODE 01 Of 3
Episode Title - In The Air

Matron is infuriated when she discovers what
Susie has been up to. Dr Burnett tackles a
dilemma. And Mr Rose faces a personal trial
when things fail to go to plan either at the
golf course or in the theatre.

Staff Edit
Series and episode number changed to reflect wiki and imdb's view of series numbering.

===============================

Some of the other rather spiffing shows available now and always if you signup free @ www.TheBox.bz:

Comedy: The Office, Peep Show, Coupling, Chef, Fawlty Towers, Only Fools and Horses, The IT Crowd, Brass Eye, Nathan Barley, Young Ones, Monty Python, Blackadder, Alan Partridge, Father Ted, Coupling, Little Britain, Mr Bean, Extras, Green Wing, Mighty Boosh

Drama: Casualty, Holby City, The Bill, Hustle, Skins, Shameless, Ashes To Ashes

Entertainment: Faking It, Derren Brown, Scrapheap Challenge, Strictly Come Dancing, Wife Swap

Game/Quiz Shows: Whose Line Is It Anyway?, Have I Got News For You, Deal Or No Deal (UK), Q.I.

Education/Documentary: Planet Earth, Horizon, Panorama, Mark Thomas (Comedy) Product

Food: Hell's Kitchen, Jamie Oliver, The F Word, Kitchen Nightmares, Masterchef, Great British Menu, Gordon Ramsay's Cookalong

Home/Property/Garden: Property Ladder, How Clean Is Your House?, Changing Rooms, Grand Designs, Homes Under The Hammer, To Buy Or Not To Buy

Motoring: Top Gear, Fifth Gear

Music: Top Of The Pops, Jools Holland, Glastonbury

Reality: Big Brother, Celebrity Big Brother, I'm a Celebrity - Get Me Out of Here!, Any Dream Will Do, Grease, Pop Idol, Wife Swap, X Factor, Badger Or Bust, Apprentice UK, Dragons' Den, Britain's Got Talent

Sci-Fi: Doctor Who, Red Dwarf, Torchwood, Primeval

Sport: Football (Soccer), Cricket, Rugby, Snooker, Darts, Formula One (F1GP)

Soaps: Eastenders, Coronation Street, Emmerdale, Neighbours, Hollyoaks

Style/Fashion: What Not To Wear, Project Catwalk

Kids: Teletubbies, Blue Peter, Tikkabilla, Andy Pandy, Postman Pat, Shoebox Zoo, Brum, Bob The Builder, Young Dracula, Sarah Jane Adventures, Shaun The Sheep

related torrents

Torrent name

health leech seeds Size
 


comments (0)

Main Menu