UK

The Lovers (Film version) (1973) [VHSRip (DivX)]

  • Download 5x Faster
  • Download torrent
  • Direct Download
  • Rate this torrent +  |  -
The Lovers (Film version) (1973) [VHSRip (DivX)]

Free and Direct Download with Usenet.nl 300GB+ free


Torrent info

Name:The Lovers (Film version) (1973) [VHSRip (DivX)]

Total Size: 559.34 MB

Magnet: Magnet Link

Seeds: 2

Leechers: 0

Stream: Watch Online @ Movie4u

Last Updated: 2011-08-10 13:59:11 (Update Now)

Torrent added: 2009-08-26 12:04:10





Torrent Files List


The Lovers (VHSRip - DivX).avi (Size: 559.34 MB) (Files: 1)

 The Lovers (VHSRip - DivX).avi

559.34 MB
 

Announce URL: http://www.thebox.bz:2710/00000000000000000000000000000000/announce

Torrent description

This torrent was uploaded from www.TheBox.bz (signup is open and free) - the home of all British TV

In response to requests: [url]http://www.thebox.bz/viewrequests.php?id=23762&req_details=1[/url]

Feature film spin-off from the popular Granada Television series as created by Jack Rosenthal and starring the late and much missed Richard Beckinsale and Paula Wilcox. Will Geoffrey and Beryl ever be happy together?

Viewer's note: Before you download, please note that this is an old rip I had that I'd made for viewing on my Archos portable device about three years ago. I may eventually get round to doing an updated rip, but in the meantime, this is perfectly watchable without making a massive dent on your ratio.

Admin note: I believe this should be okay to upload as it's a spin-off from television, produced by British Lion Pictures with British money and has been screened on television many times before.

Here are a couple of grabs taken from the actual DivX file itself:
[img=The Lovers   (Film version) (1973) [VHSRip (DivX)] preview 0][img=The Lovers   (Film version) (1973) [VHSRip (DivX)] preview 1]

CAST:
Richard Beckinsale ... Geoffrey Scrimshaw
Paula Wilcox ... Beryl Battersby
Joan Scott ... Beryl's Mum
Susan Littler ... Sandra
John Comer ... Geoffrey's Dad
Stella Moray ... Geoffrey's Mum
Nikolas Simmonds ... Roland
Rosalind Ayres ... Veronica
Margaret Flint ... Bookstore Manageress (as Maggie Flint)
Karen Ford ... Foreign Girl at Party
Ian Gray ... Bookstall Assistant
Paul Greenwood ... Trainee Manager
Mary Henry ... Woman at Jumble Sale
Bernard Latham ... Handsome
Anthony Naylor ... Neville
Serena ... Stripper
James Snell ... Doctor
Bruce Watt ... Jeremy

File Size: 559mb

Format : AVI
Format/Info : Audio Video Interleave
File size : 559 MiB
Duration : 1h 25mn
Overall bit rate : 918 Kbps
Writing application : VirtualDubMod 1.5.10.2 (build 2540/release)
Writing library : VirtualDubMod build 2540/release

Video Format : MPEG-4 Visual
Format settings, BVOP : Yes
Format settings, QPel : No
Format settings, GMC : No warppoints
Format settings, Matrix : Default
Muxing mode : Packed bitstream
Codec ID : DX50
Codec ID/Hint : DivX 5
Duration : 1h 25mn
Bit rate : 780 Kbps
Width : 704 pixels
Height : 576 pixels
Display aspect ratio : 1.222
Frame rate : 25.000 fps
Resolution : 24 bits
Colorimetry : 4:2:0
Scan type : Progressive
Bits/(Pixel*Frame) : 0.077
Stream size : 475 MiB (85%)
Writing library : DivX 6.2.5 (UTC 2006-06-16)

Audio Format : MPEG Audio
Format version : Version 1
Format profile : Layer 3
Codec ID : 55
Codec ID/Hint : MP3
Duration : 1h 25mn
Bit rate mode : Constant
Bit rate : 128 Kbps
Channel(s) : 2 channels
Sampling rate : 48.0 KHz
Resolution : 16 bits
Stream size : 78.0 MiB (14%)
Alignment : Aligned on interleaves
Interleave, duration : 40 ms (1.00 video frame)
Interleave, preload duration : 504 ms


===============================

Some of the other rather spiffing shows available now and always if you signup free @ www.TheBox.bz:

Comedy: The Office, Peep Show, Coupling, Chef, Fawlty Towers, Only Fools and Horses, The IT Crowd, Brass Eye, Nathan Barley, Young Ones, Monty Python, Blackadder, Alan Partridge, Father Ted, Coupling, Little Britain, Mr Bean, Extras, Green Wing, Mighty Boosh

Drama: Casualty, Holby City, The Bill, Hustle, Skins, Shameless, Ashes To Ashes

Entertainment: Faking It, Derren Brown, Scrapheap Challenge, Strictly Come Dancing, Wife Swap

Game/Quiz Shows: Whose Line Is It Anyway?, Have I Got News For You, Deal Or No Deal (UK), Q.I.

Education/Documentary: Planet Earth, Horizon, Panorama, Mark Thomas (Comedy) Product

Food: Hell's Kitchen, Jamie Oliver, The F Word, Kitchen Nightmares, Masterchef, Great British Menu, Gordon Ramsay's Cookalong

Home/Property/Garden: Property Ladder, How Clean Is Your House?, Changing Rooms, Grand Designs, Homes Under The Hammer, To Buy Or Not To Buy

Motoring: Top Gear, Fifth Gear

Music: Top Of The Pops, Jools Holland, Glastonbury

Reality: Big Brother, Celebrity Big Brother, I'm a Celebrity - Get Me Out of Here!, Any Dream Will Do, Grease, Pop Idol, Wife Swap, X Factor, Badger Or Bust, Apprentice UK, Dragons' Den, Britain's Got Talent

Sci-Fi: Doctor Who, Red Dwarf, Torchwood, Primeval

Sport: Football (Soccer), Cricket, Rugby, Snooker, Darts, Formula One (F1GP)

Soaps: Eastenders, Coronation Street, Emmerdale, Neighbours, Hollyoaks

Style/Fashion: What Not To Wear, Project Catwalk

Kids: Teletubbies, Blue Peter, Tikkabilla, Andy Pandy, Postman Pat, Shoebox Zoo, Brum, Bob The Builder, Young Dracula, Sarah Jane Adventures, Shaun The Sheep

related torrents

Torrent name

health leech seeds Size
 

comments (0)

Main Menu