UK

The Inbetweeners Season1 complete xvid mazysnuthouse org

  • Download 5x Faster
  • Download torrent
  • Direct Download
  • Rate this torrent +  |  -
The Inbetweeners Season1 complete xvid mazysnuthouse org

Anonymous and Free Direct Download 300GB+


Torrent info

Name:The Inbetweeners Season1 complete xvid mazysnuthouse org

Total Size: 1.13 GB

Magnet: Magnet Link

Seeds: 0

Leechers: 0

Stream: Watch Online @ Movie4u

Last Updated: 2015-09-30 11:21:02 (Update Now)

Torrent added: 2009-08-26 12:02:18



VPN For Torrents

Torrent Files List


Ep1.avi (Size: 1.13 GB) (Files: 6)

 Ep1.avi

199.84 MB

 Ep2.avi

179.77 MB

 Ep3.avi

200.17 MB

 Ep4.avi

201.40 MB

 Ep5.avi

179.65 MB

 Ep6.avi

201.28 MB
 

tracker

leech seeds
 

Torrent description

Format : AVI
Format/Info : Audio Video Interleave
Format profile : OpenDML
File size : 200 MiB
Duration : 21mn 53s
Overall bit rate : 1 276 Kbps
Writing application : AVI-Mux GUI 1.17.8, Aug 30 2008 12:36:58

Video
Format : MPEG-4 Visual
Format profile : [email protected]
Format settings, BVOP : No
Format settings, QPel : No
Format settings, GMC : No warppoints
Format settings, Matrix : Default
Codec ID : XVID
Codec ID/Hint : XviD
Duration : 21mn 53s
Bit rate : 1 011 Kbps
Width : 576 pixels
Height : 320 pixels
Display aspect ratio : 16/9
Frame rate : 25.000 fps
Resolution : 24 bits
Colorimetry : 4:2:0
Scan type : Progressive
Bits/(Pixel*Frame) : 0.219
Stream size : 158 MiB (79%)
Writing library : XviD 1.2.0.dev47 (UTC 2006-11-01)

Audio #1
Format : MPEG Audio
Format version : Version 1
Format profile : Layer 3
Codec ID : 55
Codec ID/Hint : MP3
Bit rate mode : Constant
Bit rate : 128 Kbps
Minimum bit rate : 128 Kbps
Channel(s) : 2 channels
Sampling rate : 48.0 KHz
Resolution : 16 bits
Stream size : 20.0 MiB (10%)
Alignment : Aligned on interleaves
Interleave, duration : 24 ms (0.60 video frame)
Interleave, preload duration : 192 ms
Writing library : LAME3.97
Encoding settings : CBR

Audio #2
Format : MPEG Audio
Format version : Version 1
Format profile : Layer 3
Codec ID : 55
Codec ID/Hint : MP3
Bit rate mode : Constant
Bit rate : 128 Kbps
Channel(s) : 2 channels
Sampling rate : 48.0 KHz
Resolution : 16 bits
Stream size : 20.0 MiB (10%)
Alignment : Aligned on interleaves
Interleave, duration : 667 ms (16.68 video frames)
Interleave, preload duration : 216 ms
Title : Commentary


About.,...

What’s on the mind of the average sixth-form boy? College, jobs, marriage, that whole bright and exciting future thing? Or the humpability of anything female in sight? For Will, Simon, Jay and Neil, it’s humpability all the way.



Marooned in suburbia, The Inbetweeners follows four friends as they navigate the minefield of the Comprehensive education with their hormones at full blast. There's vomit, offensive language, and a trip to Thorpe Park.


All they care about is sex, cheap booze, kid brothers and the sexual persuasion of Neil’s dad. None of our heroes are exceptional, all are distinctly average. And trying to convince the world they are sophisticated, sexy human beings usually ends in wretched disaster.

related torrents

Torrent name

health leech seeds Size
 


comments (0)

Main Menu