UK

The Brothers S01E06 Turning Point (14 April 1972) [DVDRip (Xvid)]

  • Download 5x Faster
  • Download torrent
  • Direct Download
  • Rate this torrent +  |  -
The Brothers S01E06 Turning Point (14 April 1972) [DVDRip (Xvid)]

Free and Direct Download with Usenet.nl 300GB+ free


Torrent info

Name:The Brothers S01E06 Turning Point (14 April 1972) [DVDRip (Xvid)]

Total Size: 700.01 MB

Magnet: Magnet Link

Seeds: 12

Leechers: 0

Stream: Watch Online @ Movie4u

Last Updated: 2010-08-18 09:00:24 (Update Now)

Torrent added: 2009-08-26 11:56:28





Torrent Files List


The Brothers S01 E06.avi (Size: 700.01 MB) (Files: 1)

 The Brothers S01 E06.avi

700.01 MB
 

Announce URL: http://www.thebox.bz:2710/00000000000000000000000000000000/announce

Torrent description

This torrent was uploaded from www.TheBox.bz (signup is open and free) - the home of all British TV

The series was based around conflict within the Hammond family over the direction of the family firm, a road haulage business called Hammond Transport Services, after the death of patriarch Robert Hammond. The eldest son, Edward (played by Glyn Owen during the first series and by Patrick O'Connell for the remainder of the show's run), prepares to take over the running of the business, only to find that his father has left equal shares to his two other sons, Brian (Richard Easton), a dull accountant and David (Robin Chadwick), a young graduate - and to his mistress, company secretary Jennifer Kingsley (Jennifer Wilson).
Other prominent characters included Hammond's hard-faced widow and the mother of the three brothers, Mary (Jean Anderson), who is determined to continue exercising her own influence over her family, Brian's shrewish wife Ann (Hilary Tindall) and David's girlfriend then wife Jill (Gabrielle Drake). Later cast members to join the programme included Colin Baker as the villainous financial whizzkid and proto-yuppie Paul Merroney, Liza Goddard as his secretary then wife April Winter and Kate O'Mara as Jane Maxwell, the tough female boss of an air freight business.


Series Cast
Jean Anderson ... Mary Hammond (92 episodes, 1972-1976)
Richard Easton ... Brian Hammond (92 episodes, 1972-1976)
Robin Chadwick ... David Hammond (92 episodes, 1972-1976)
Jennifer Wilson ... Jennifer Kingsley / ... (92 episodes, 1972-1976)
Derek Benfield ... Bill Riley (92 episodes, 1972-1976)
Patrick O'Connell ... Edward Hammond (82 episodes, 1973-1977)
Hilary Tindall ... Anne Hammond / ... (59 episodes, 1972-1976)
Margaret Ashcroft ... Gwen Riley (52 episodes, 1974-1976)
Colin Baker ... Paul Merroney (46 episodes, 1974-1976)
Gabrielle Drake ... Jill Hammond / ... (42 episodes, 1972-1974)
Julia Goodman ... Barbara Kingsley / ... (34 episodes, 1972-1976)
Kate O'Mara ... Jane Maxwell (30 episodes, 1975-1976)
Carole Mowlam ... Clare Miller (29 episodes, 1974-1976)
Murray Hayne ... Martin Farrell (22 episodes, 1974-1976)
Jonathan Newth ... Nicholas Fox (20 episodes, 1973-1974)
Liza Goddard ... April Merroney / ... (18 episodes, 1976)


The first series has Glyn Owen starring as Edward Hammond. He pulled out of the show after the first series and was replaced by Patrick O'Connell.

Format : AVI
Format/Info : Audio Video Interleave
File size : 700 MiB
Duration : 48mn 41s
Overall bit rate : 2 010 Kbps
Writing application : VirtualDubMod 1.5.4.1 (build 2178/release)
Writing library : VirtualDubMod build 2178/release

Video
Format : MPEG-4 Visual
Format profile : Streaming [email protected]
Format settings, BVOP : Yes
Format settings, QPel : No
Format settings, GMC : No warppoints
Format settings, Matrix : Custom
Codec ID : XVID
Codec ID/Hint : XviD
Duration : 48mn 41s
Bit rate : 1 897 Kbps
Width : 624 pixels
Height : 464 pixels
Display aspect ratio : 4/3
Frame rate : 25.000 fps
Resolution : 24 bits
Colorimetry : 4:2:0
Scan type : Progressive
Bits/(Pixel*Frame) : 0.262
Stream size : 660 MiB (94%)
Writing library : XviD 50

Audio
Format : MPEG Audio
Format version : Version 1
Format profile : Layer 3
Codec ID : 55
Codec ID/Hint : MP3
Duration : 48mn 40s
Bit rate mode : Variable
Bit rate : 101 Kbps
Channel(s) : 2 channels
Sampling rate : 48.0 KHz
Resolution : 16 bits
Stream size : 35.1 MiB (5%)
Alignment : Aligned on interleaves
Interleave, duration : 24 ms (0.60 video frame)
Interleave, preload duration : 541 ms
Language : English


The dvd rip was not remastered when it was originally transferred from film, so the quality is not first class - however it is very watchable.

Episodes 7 -10 will follow over the next few days.

===============================

Some of the other rather spiffing shows available now and always if you signup free @ www.TheBox.bz:

Comedy: The Office, Peep Show, Coupling, Chef, Fawlty Towers, Only Fools and Horses, The IT Crowd, Brass Eye, Nathan Barley, Young Ones, Monty Python, Blackadder, Alan Partridge, Father Ted, Coupling, Little Britain, Mr Bean, Extras, Green Wing, Mighty Boosh

Drama: Casualty, Holby City, The Bill, Hustle, Skins, Shameless, Ashes To Ashes

Entertainment: Faking It, Derren Brown, Scrapheap Challenge, Strictly Come Dancing, Wife Swap

Game/Quiz Shows: Whose Line Is It Anyway?, Have I Got News For You, Deal Or No Deal (UK), Q.I.

Education/Documentary: Planet Earth, Horizon, Panorama, Mark Thomas (Comedy) Product

Food: Hell's Kitchen, Jamie Oliver, The F Word, Kitchen Nightmares, Masterchef, Great British Menu, Gordon Ramsay's Cookalong

Home/Property/Garden: Property Ladder, How Clean Is Your House?, Changing Rooms, Grand Designs, Homes Under The Hammer, To Buy Or Not To Buy

Motoring: Top Gear, Fifth Gear

Music: Top Of The Pops, Jools Holland, Glastonbury

Reality: Big Brother, Celebrity Big Brother, I'm a Celebrity - Get Me Out of Here!, Any Dream Will Do, Grease, Pop Idol, Wife Swap, X Factor, Badger Or Bust, Apprentice UK, Dragons' Den, Britain's Got Talent

Sci-Fi: Doctor Who, Red Dwarf, Torchwood, Primeval

Sport: Football (Soccer), Cricket, Rugby, Snooker, Darts, Formula One (F1GP)

Soaps: Eastenders, Coronation Street, Emmerdale, Neighbours, Hollyoaks

Style/Fashion: What Not To Wear, Project Catwalk

Kids: Teletubbies, Blue Peter, Tikkabilla, Andy Pandy, Postman Pat, Shoebox Zoo, Brum, Bob The Builder, Young Dracula, Sarah Jane Adventures, Shaun The Sheep

related torrents

Torrent name

health leech seeds Size
 

comments (0)

Main Menu