UK

Saturday Live Series 1 Ep05 Hale & Pace 1986 [VHSRip (DivX)]

  • Download 5x Faster
  • Download torrent
  • Direct Download
  • Rate this torrent +  |  -
Saturday Live Series 1 Ep05 Hale & Pace 1986 [VHSRip (DivX)]

Anonymous and Direct Download 300GB+ free


Torrent info

Name:Saturday Live Series 1 Ep05 Hale & Pace 1986 [VHSRip (DivX)]

Total Size: 518.54 MB

Magnet: Magnet Link

Seeds: 7

Leechers: 0

Stream: Watch Online @ Movie4u

Last Updated: 2010-08-19 14:48:07 (Update Now)

Torrent added: 2009-08-26 11:29:03




Torrent Files List


Saturday Live - Hale & Pace - 1986..divx (Size: 518.54 MB) (Files: 1)

 Saturday Live - Hale & Pace - 1986..divx

518.54 MB
 

Announce URL: http://www.thebox.bz:2710/00000000000000000000000000000000/announce

Torrent description

This torrent was uploaded from www.TheBox.bz (signup is open and free) - the home of all British TV

Season 1, Ep 5: Hale & Pace

There is about a minute minute missing from the end of this (end titles over music)

Guest hosts: Hale & Pace.
Musical guests : Madness, Roger Daltrey, The Walkers.
Aired on Channel 4 on 22 February 1986
Featuring Early appearances of Ben Elton, Harry Enfield, Adrian Edmondson, Rik Mayall & The Wow Show, Jeremy Hardy.

ripped from 2nd gen VHS recording
Format : DivX
Format/Info : Hack of AVI
File size : 543 MiB
Duration : 1h 19mn
Overall bit rate : 951 Kbps

Video
Format : MPEG-4 Visual
Format settings, BVOP : Yes
Format settings, QPel : No
Format settings, GMC : No warppoints
Format settings, Matrix : Default (H.263)
Muxing mode : Packed bitstream
Codec ID : DX50
Codec ID/Hint : DivX 5
Duration : 1h 19mn
Bit rate : 814 Kbps
Width : 640 pixels
Height : 480 pixels
Display aspect ratio : 4/3
Frame rate : 25.000 fps
Resolution : 24 bits
Colorimetry : 4:2:0
Scan type : Progressive
Bits/(Pixel*Frame) : 0.106
Stream size : 464 MiB (86%)
Title : Video
Writing library : DivX 2151

Audio
Format : MPEG Audio
Format version : Version 1
Format profile : Layer 3
Codec ID : 55
Codec ID/Hint : MP3
Duration : 1h 19mn
Bit rate mode : Constant
Bit rate : 128 Kbps
Channel(s) : 2 channels
Sampling rate : 48.0 KHz
Resolution : 16 bits
Stream size : 73.0 MiB (13%)
Alignment : Split accross interleaves
Interleave, duration : 40 ms (1.00 video frame)
Interleave, preload duration : 500 ms
Title : Audio

===============================

Some of the other rather spiffing shows available now and always if you signup free @ www.TheBox.bz:

Comedy: The Office, Peep Show, Coupling, Chef, Fawlty Towers, Only Fools and Horses, The IT Crowd, Brass Eye, Nathan Barley, Young Ones, Monty Python, Blackadder, Alan Partridge, Father Ted, Coupling, Little Britain, Mr Bean, Extras, Green Wing, Mighty Boosh

Drama: Casualty, Holby City, The Bill, Hustle, Skins, Shameless, Ashes To Ashes

Entertainment: Faking It, Derren Brown, Scrapheap Challenge, Strictly Come Dancing, Wife Swap

Game/Quiz Shows: Whose Line Is It Anyway?, Have I Got News For You, Deal Or No Deal (UK), Q.I.

Education/Documentary: Planet Earth, Horizon, Panorama, Mark Thomas (Comedy) Product

Food: Hell's Kitchen, Jamie Oliver, The F Word, Kitchen Nightmares, Masterchef, Great British Menu, Gordon Ramsay's Cookalong

Home/Property/Garden: Property Ladder, How Clean Is Your House?, Changing Rooms, Grand Designs, Homes Under The Hammer, To Buy Or Not To Buy

Motoring: Top Gear, Fifth Gear

Music: Top Of The Pops, Jools Holland, Glastonbury

Reality: Big Brother, Celebrity Big Brother, I'm a Celebrity - Get Me Out of Here!, Any Dream Will Do, Grease, Pop Idol, Wife Swap, X Factor, Badger Or Bust, Apprentice UK, Dragons' Den, Britain's Got Talent

Sci-Fi: Doctor Who, Red Dwarf, Torchwood, Primeval

Sport: Football (Soccer), Cricket, Rugby, Snooker, Darts, Formula One (F1GP)

Soaps: Eastenders, Coronation Street, Emmerdale, Neighbours, Hollyoaks

Style/Fashion: What Not To Wear, Project Catwalk

Kids: Teletubbies, Blue Peter, Tikkabilla, Andy Pandy, Postman Pat, Shoebox Zoo, Brum, Bob The Builder, Young Dracula, Sarah Jane Adventures, Shaun The Sheep

related torrents

Torrent name

health leech seeds Size
 


comments (0)

Main Menu