UK

Saturday Live Series 1 Ep03 Pamela Stephenson 1986 [VHSRip (DX50)]

  • Download 5x Faster
  • Download torrent
  • Direct Download
  • Rate this torrent +  |  -

Torrent info

Name:Saturday Live Series 1 Ep03 Pamela Stephenson 1986 [VHSRip (DX50)]

Total Size: 539.59 MB

Magnet: Magnet Link

Seeds: 0

Leechers: 0

Stream: Watch Online @ Movie4u

Last Updated: 2013-05-20 16:47:59 (Update Now)

Torrent added: 2009-08-26 11:29:02



VPN For Torrents

Torrent Files List


Saturday Live - Pamela Stephenson - 1986.avi (Size: 539.59 MB) (Files: 1)

 Saturday Live - Pamela Stephenson - 1986.avi

539.59 MB
 

Announce URL:

Torrent description

This torrent was uploaded from www.TheBox.bz (signup is open and free) - the home of all British TV

Season 1, Ep 3: Pamela Stephenson
Guest host: Pamela Stephenson. Musical guests: Paul Hardcastle and Talk Talk
Special Guest Appearance by Spike Milligan.

Aired on Channel 4 on 08 February 1986
Featuring Early appearances of Ben Elton, Harry Enfield,Stephen Fry,Hugh Laurie, Adrian Edmondson, Rik Mayall.

ripped from 2nd gen VHS recording
Format : AVI
Format/Info : Audio Video Interleave
File size : 540 MiB
Duration : 1h 16mn
Overall bit rate : 984 Kbps

Video
Format : MPEG-4 Visual
Format settings, BVOP : Yes
Format settings, QPel : No
Format settings, GMC : No warppoints
Format settings, Matrix : Default (H.263)
Muxing mode : Packed bitstream
Codec ID : DX50
Codec ID/Hint : DivX 5
Duration : 1h 16mn
Bit rate : 780 Kbps
Width : 352 pixels
Height : 240 pixels
Display aspect ratio : 1.467
Frame rate : 29.970 fps
Resolution : 24 bits
Colorimetry : 4:2:0
Scan type : Progressive
Bits/(Pixel*Frame) : 0.308
Stream size : 428 MiB (79%)
Writing library : DivX 5.2.1 (DrDivX 106) (UTC 2004-09-08)

Audio
Format : MPEG Audio
Format version : Version 1
Format profile : Layer 3
Codec ID : 55
Codec ID/Hint : MP3
Duration : 1h 16mn
Bit rate mode : Constant
Bit rate : 192 Kbps
Channel(s) : 2 channels
Sampling rate : 44.1 KHz
Resolution : 16 bits
Video delay : 26ms
Stream size : 105 MiB (20%)
Alignment : Split accross interleaves
Interleave, duration : 33 ms (1.00 video frame)
Title : Audio Stream
Writing library : LAME3.92


===============================

Some of the other rather spiffing shows available now and always if you signup free @ www.TheBox.bz:

Comedy: The Office, Peep Show, Coupling, Chef, Fawlty Towers, Only Fools and Horses, The IT Crowd, Brass Eye, Nathan Barley, Young Ones, Monty Python, Blackadder, Alan Partridge, Father Ted, Coupling, Little Britain, Mr Bean, Extras, Green Wing, Mighty Boosh

Drama: Casualty, Holby City, The Bill, Hustle, Skins, Shameless, Ashes To Ashes

Entertainment: Faking It, Derren Brown, Scrapheap Challenge, Strictly Come Dancing, Wife Swap

Game/Quiz Shows: Whose Line Is It Anyway?, Have I Got News For You, Deal Or No Deal (UK), Q.I.

Education/Documentary: Planet Earth, Horizon, Panorama, Mark Thomas (Comedy) Product

Food: Hell's Kitchen, Jamie Oliver, The F Word, Kitchen Nightmares, Masterchef, Great British Menu, Gordon Ramsay's Cookalong

Home/Property/Garden: Property Ladder, How Clean Is Your House?, Changing Rooms, Grand Designs, Homes Under The Hammer, To Buy Or Not To Buy

Motoring: Top Gear, Fifth Gear

Music: Top Of The Pops, Jools Holland, Glastonbury

Reality: Big Brother, Celebrity Big Brother, I'm a Celebrity - Get Me Out of Here!, Any Dream Will Do, Grease, Pop Idol, Wife Swap, X Factor, Badger Or Bust, Apprentice UK, Dragons' Den, Britain's Got Talent

Sci-Fi: Doctor Who, Red Dwarf, Torchwood, Primeval

Sport: Football (Soccer), Cricket, Rugby, Snooker, Darts, Formula One (F1GP)

Soaps: Eastenders, Coronation Street, Emmerdale, Neighbours, Hollyoaks

Style/Fashion: What Not To Wear, Project Catwalk

Kids: Teletubbies, Blue Peter, Tikkabilla, Andy Pandy, Postman Pat, Shoebox Zoo, Brum, Bob The Builder, Young Dracula, Sarah Jane Adventures, Shaun The Sheep

related torrents

Torrent name

health leech seeds Size
 


comments (0)

Main Menu