UK

Newsnight Review (17th April 2009) [WebRip (XviD)]

  • Download 5x Faster
  • Download torrent
  • Direct Download
  • Rate this torrent +  |  -
Newsnight Review (17th April 2009) [WebRip (XviD)]

Free and Direct Download with Usenet.nl 300GB+ free


Torrent info

Name:Newsnight Review (17th April 2009) [WebRip (XviD)]

Total Size: 305.66 MB

Magnet: Magnet Link

Seeds: 1

Leechers: 0

Stream: Watch Online @ Movie4u

Last Updated: 2009-11-24 15:04:34 (Update Now)

Torrent added: 2009-08-26 11:10:53





Torrent Files List


Newsnight_Review_17th_April_2009_webrip.xvid.avi (Size: 305.66 MB) (Files: 1)

 Newsnight_Review_17th_April_2009_webrip.xvid.avi

305.66 MB
 

Announce URL: http://www.thebox.bz:2710/00000000000000000000000000000000/announce

Torrent description

This torrent was uploaded from www.TheBox.bz (signup is open and free) - the home of all British TV

Round table arts and culture discussion programme with Kirsty Wark.

Broadcast on:
BBC Two, 11:05pm Friday 17th April 2009
Duration:
30 minutes

General
Complete name : Newsnight_Review_17th_April_2009_webrip.xvid.avi
Format : AVI
Format/Info : Audio Video Interleave
File size : 306 MiB
Duration : 37mn 16s
Overall bit rate : 1 146 Kbps
Writing application : Lavf1d.51.10.0

Video
Format : xvid
Codec ID : xvid
Duration : 37mn 16s
Bit rate : 1 000 Kbps
Width : 832 pixels
Height : 468 pixels
Display aspect ratio : 16/9
Frame rate : 50.000 fps
Resolution : 24 bits
Bits/(Pixel*Frame) : 0.051
Stream size : 267 MiB (87%)

Audio
Format : MPEG Audio
Format version : Version 1
Format profile : Layer 3
Codec ID : 55
Codec ID/Hint : MP3
Duration : 37mn 16s
Bit rate mode : Constant
Bit rate : 128 Kbps
Channel(s) : 2 channels
Sampling rate : 48.0 KHz
Resolution : 16 bits
Stream size : 34.1 MiB (11%)
Alignment : Aligned on interleaves
Interleave, duration : 24 ms (1.20 video frame)

===============================

Some of the other rather spiffing shows available now and always if you signup free @ www.TheBox.bz:

Comedy: The Office, Peep Show, Coupling, Chef, Fawlty Towers, Only Fools and Horses, The IT Crowd, Brass Eye, Nathan Barley, Young Ones, Monty Python, Blackadder, Alan Partridge, Father Ted, Coupling, Little Britain, Mr Bean, Extras, Green Wing, Mighty Boosh

Drama: Casualty, Holby City, The Bill, Hustle, Skins, Shameless, Ashes To Ashes

Entertainment: Faking It, Derren Brown, Scrapheap Challenge, Strictly Come Dancing, Wife Swap

Game/Quiz Shows: Whose Line Is It Anyway?, Have I Got News For You, Deal Or No Deal (UK), Q.I.

Education/Documentary: Planet Earth, Horizon, Panorama, Mark Thomas (Comedy) Product

Food: Hell's Kitchen, Jamie Oliver, The F Word, Kitchen Nightmares, Masterchef, Great British Menu, Gordon Ramsay's Cookalong

Home/Property/Garden: Property Ladder, How Clean Is Your House?, Changing Rooms, Grand Designs, Homes Under The Hammer, To Buy Or Not To Buy

Motoring: Top Gear, Fifth Gear

Music: Top Of The Pops, Jools Holland, Glastonbury

Reality: Big Brother, Celebrity Big Brother, I'm a Celebrity - Get Me Out of Here!, Any Dream Will Do, Grease, Pop Idol, Wife Swap, X Factor, Badger Or Bust, Apprentice UK, Dragons' Den, Britain's Got Talent

Sci-Fi: Doctor Who, Red Dwarf, Torchwood, Primeval

Sport: Football (Soccer), Cricket, Rugby, Snooker, Darts, Formula One (F1GP)

Soaps: Eastenders, Coronation Street, Emmerdale, Neighbours, Hollyoaks

Style/Fashion: What Not To Wear, Project Catwalk

Kids: Teletubbies, Blue Peter, Tikkabilla, Andy Pandy, Postman Pat, Shoebox Zoo, Brum, Bob The Builder, Young Dracula, Sarah Jane Adventures, Shaun The Sheep

related torrents

Torrent name

health leech seeds Size
 

comments (0)

Main Menu