UK

Mist the Tale of a Sheepdog Puppy (9 April 2007) [DVDRip (Divx)]

  • Download 5x Faster
  • Download torrent
  • Direct Download
  • Rate this torrent +  |  -

Torrent info

Name:Mist the Tale of a Sheepdog Puppy (9 April 2007) [DVDRip (Divx)]

Total Size: 724.24 MB

Magnet: Magnet Link

Seeds: 0

Leechers: 0

Stream: Watch Full Movie @ Movie4u

Last Updated: 2013-10-05 10:08:05 (Update Now)

Torrent added: 2009-08-26 11:03:11



VPN For Torrents

Torrent Files List


Mist the Tale of a Sheepdog Puppy (9 April 2007) [DVDRip (Divx)].avi (Size: 724.24 MB) (Files: 1)

 Mist the Tale of a Sheepdog Puppy (9 April 2007) [DVDRip (Divx)].avi

724.24 MB
 

Announce URL:

Torrent description

This torrent was uploaded from www.TheBox.bz (signup is open and free) - the home of all British TV

Mist the Tale of a Sheepdog Puppy
9 April 2007

Description
This is the full-length introductory episode (movie) to the series that followed. As seen on Channel 5 on Christmas Day! Mist is one of three pups born at Borough Farm. From the moment that she opens her eyes she knows that one-day she wants to become a real sheepdog. But things are not as straightforward as she might have hoped. Training with the boss seems to be rather confusing and when Mist tries to impress him with her newfound skills she only gets into trouble. Then there's a bunch of gruff and grumpy rams to deal with, and an auntie who doesn't seem to always have her best interests at heart. Can Mist really learn her craft, and one day prove herself worthy of a place in the team of Sheepdogs at Borough Farm? Narrated by Derek Jacobi and voiced by Mel Giedroyc, Brian Blessed and Una Stubbs this tale will enchant children everywhere.

Synopsis
Mist is a trainee sheepdog at Borough Farm who attempts to learn her craft.

General
Format : AVI
Format/Info : Audio Video Interleave
File size : 724 MiB
Duration : 1h 15mn
Overall bit rate : 1 339 Kbps

Video
Format : MPEG-4 Visual
Format settings, BVOP : No
Format settings, QPel : No
Format settings, GMC : No warppoints
Format settings, Matrix : Default
Codec ID : DIVX
Codec ID/Info : Project Mayo
Codec ID/Hint : DivX 4
Duration : 1h 15mn
Bit rate : 1 198 Kbps
Width : 720 pixels
Height : 576 pixels
Display aspect ratio : 16/9
Frame rate : 25.000 fps
Standard : PAL
Resolution : 24 bits
Colorimetry : 4:2:0
Scan type : Progressive
Bits/(Pixel*Frame) : 0.116
Stream size : 648 MiB (89%)
Writing library : avc2.0.11.1110

Audio
Format : MPEG Audio
Format version : Version 1
Format profile : Layer 3
Codec ID : 55
Codec ID/Hint : MP3
Duration : 1h 15mn
Bit rate mode : Constant
Bit rate : 128 Kbps
Channel(s) : 2 channels
Sampling rate : 48.0 KHz
Resolution : 16 bits
Stream size : 69.2 MiB (10%)
Alignment : Aligned on interleaves
Interleave, duration : 24 ms (0.60 video frame)


===============================

Some of the other rather spiffing shows available now and always if you signup free @ www.TheBox.bz:

Comedy: The Office, Peep Show, Coupling, Chef, Fawlty Towers, Only Fools and Horses, The IT Crowd, Brass Eye, Nathan Barley, Young Ones, Monty Python, Blackadder, Alan Partridge, Father Ted, Coupling, Little Britain, Mr Bean, Extras, Green Wing, Mighty Boosh

Drama: Casualty, Holby City, The Bill, Hustle, Skins, Shameless, Ashes To Ashes

Entertainment: Faking It, Derren Brown, Scrapheap Challenge, Strictly Come Dancing, Wife Swap

Game/Quiz Shows: Whose Line Is It Anyway?, Have I Got News For You, Deal Or No Deal (UK), Q.I.

Education/Documentary: Planet Earth, Horizon, Panorama, Mark Thomas (Comedy) Product

Food: Hell's Kitchen, Jamie Oliver, The F Word, Kitchen Nightmares, Masterchef, Great British Menu, Gordon Ramsay's Cookalong

Home/Property/Garden: Property Ladder, How Clean Is Your House?, Changing Rooms, Grand Designs, Homes Under The Hammer, To Buy Or Not To Buy

Motoring: Top Gear, Fifth Gear

Music: Top Of The Pops, Jools Holland, Glastonbury

Reality: Big Brother, Celebrity Big Brother, I'm a Celebrity - Get Me Out of Here!, Any Dream Will Do, Grease, Pop Idol, Wife Swap, X Factor, Badger Or Bust, Apprentice UK, Dragons' Den, Britain's Got Talent

Sci-Fi: Doctor Who, Red Dwarf, Torchwood, Primeval

Sport: Football (Soccer), Cricket, Rugby, Snooker, Darts, Formula One (F1GP)

Soaps: Eastenders, Coronation Street, Emmerdale, Neighbours, Hollyoaks

Style/Fashion: What Not To Wear, Project Catwalk

Kids: Teletubbies, Blue Peter, Tikkabilla, Andy Pandy, Postman Pat, Shoebox Zoo, Brum, Bob The Builder, Young Dracula, Sarah Jane Adventures, Shaun The Sheep

related torrents

Torrent name

health leech seeds Size
 


comments (0)

Main Menu

 

script data-cfasync="false" src="//d2ghscazvn398x.cloudfront.net/?cshgd=690275">