Movies - Other

There Will Be Blood 2008 TR ENG AC3 DvDRip XviD TLine

  • Download 5x Faster
  • Download torrent
  • Direct Download
  • Rate this torrent +  |  -
There Will Be Blood 2008 TR ENG AC3 DvDRip XviD TLine

Anonymous and Free Direct Download


Torrent info

Name:There Will Be Blood 2008 TR ENG AC3 DvDRip XviD TLine

Total Size: 1.35 GB

Magnet: Magnet Link

Seeds: 0

Leechers: 0

Stream: Watch Online @ Movie4u

Last Updated: 2015-11-24 21:30:42 (Update Now)

Torrent added: 2008-08-02 12:43:54



VPN For Torrents

Torrent Files List


There Will Be Blood.TR-EN AC3.DvDRip.XviD-TLine.cd1 (Size: 1.35 GB) (Files: 18)

 There Will Be Blood.TR-EN AC3.DvDRip.XviD-TLine.cd1

  blood.cd1.txt

2.79 KB

  There Will Be Blood.TR-EN AC3.DvDRip.XviD-TLine.cd1.part1.rar

95.78 MB

  There Will Be Blood.TR-EN AC3.DvDRip.XviD-TLine.cd1.part2.rar

95.78 MB

  There Will Be Blood.TR-EN AC3.DvDRip.XviD-TLine.cd1.part3.rar

95.78 MB

  There Will Be Blood.TR-EN AC3.DvDRip.XviD-TLine.cd1.part4.rar

95.78 MB

  There Will Be Blood.TR-EN AC3.DvDRip.XviD-TLine.cd1.part5.rar

95.78 MB

  There Will Be Blood.TR-EN AC3.DvDRip.XviD-TLine.cd1.part6.rar

95.78 MB

  There Will Be Blood.TR-EN AC3.DvDRip.XviD-TLine.cd1.part7.rar

95.78 MB

  There Will Be Blood.TR-EN AC3.DvDRip.XviD-TLine.cd1.part8.rar

21.57 MB

 There Will Be Blood.TR-EN AC3.DvDRip.XviD-TLine.cd2

  blood.cd2.txt

2.79 KB

  There Will Be Blood.TR-EN AC3.DvDRip.XviD-TLine.cd2.part1.rar

95.78 MB

  There Will Be Blood.TR-EN AC3.DvDRip.XviD-TLine.cd2.part2.rar

95.78 MB

  There Will Be Blood.TR-EN AC3.DvDRip.XviD-TLine.cd2.part3.rar

95.78 MB

  There Will Be Blood.TR-EN AC3.DvDRip.XviD-TLine.cd2.part4.rar

95.78 MB

  There Will Be Blood.TR-EN AC3.DvDRip.XviD-TLine.cd2.part5.rar

95.78 MB

  There Will Be Blood.TR-EN AC3.DvDRip.XviD-TLine.cd2.part6.rar

95.78 MB

  There Will Be Blood.TR-EN AC3.DvDRip.XviD-TLine.cd2.part7.rar

95.78 MB

  There Will Be Blood.TR-EN AC3.DvDRip.XviD-TLine.cd2.part8.rar

20.93 MB
 

tracker

leech seeds
 

Torrent description

tion TLine


There Will Be Blood 2008 TR-ENG AC3 DvDRip XviD-TLine
http://www.imdb.com/title/tt0469494/


Ripper : 17mayis
Format : AVI
Format/Info : Audio Video Interleave
File size : 700 MiB
Duration : 1h 13mn
Overall bit rate : 1339 Kbps
Writing application : VirtualDubMod 1.5.4.1 (build 2178/release)
Writing library : VirtualDubMod build 2178/release
IAS1 : English / English
IAS2 : Turkish / Turkish

Video
Format : MPEG-4 Visual
Format profile : Streaming [email protected]
Format settings, BVOP : Yes
Format settings, QPel : No
Format settings, GMC : No warppoints
Format settings, Matrix : Custom
Codec ID : XVID
Codec ID/Hint : XviD
Duration : 1h 13mn
Bit rate : 562 Kbps
Width : 720 pixels
Height : 400 pixels
Display aspect ratio : 16/9
Frame rate : 25.000 fps
Resolution : 8 bits
Colorimetry : 4:2:0
Scan type : Progressive
Bits/(Pixel*Frame) : 0.078
Stream size : 294 MiB (42%)
Writing library : XviD 1.2.0.dev47 (UTC 2006-11-01)

Audio #1
Format : AC-3
Format/Info : Audio Coding 3
Codec ID : 2000
Duration : 1h 13mn
Bit rate mode : Constant
Bit rate : 384 Kbps
Channel(s) : 6 channels
Channel positions : Front: L C R, Rear: L R, LFE
Sampling rate : 48.0 KHz
Video delay : 6ms
Stream size : 201 MiB (29%)
Alignment : Split accross interleaves
Interleave, duration : 96 ms (2.40 video frames)
Interleave, preload duration : 96 ms

Audio #2
Format : AC-3
Format/Info : Audio Coding 3
Codec ID : 2000
Duration : 1h 13mn
Bit rate mode : Constant
Bit rate : 384 Kbps
Channel(s) : 6 channels
Channel positions : Front: L C R, Rear: L R, LFE
Sampling rate : 48.0 KHz
Video delay : 6ms
Stream size : 201 MiB (29%)
Alignment : Split accross interleaves
Interleave, duration : 96 ms (2.40 video frames)
Interleave, preload duration : 96 ms

related torrents

Torrent name

health leech seeds Size
 


comments (0)

Main Menu