UK

Matt Dawson's Tough Guy Race (22nd July 2009) [TVRip (DivX)]

  • Download 5x Faster
  • Download torrent
  • Direct Download
  • Rate this torrent +  |  -
Matt Dawson's Tough Guy Race (22nd July 2009) [TVRip (DivX)]

Free and Direct Download with Usenet.nl 300GB+ free


Torrent info

Name:Matt Dawson's Tough Guy Race (22nd July 2009) [TVRip (DivX)]

Total Size: 577.12 MB

Magnet: Magnet Link

Seeds: 12

Leechers: 0

Stream: Watch Online @ Movie4u

Last Updated: 2010-11-23 09:03:17 (Update Now)

Torrent added: 2009-08-26 10:59:27





Torrent Files List


Matt Dawsons Tough Guy Race.AVI (Size: 577.12 MB) (Files: 1)

 Matt Dawsons Tough Guy Race.AVI

577.12 MB
 

Announce URL: http://www.thebox.bz:2710/00000000000000000000000000000000/announce

Torrent description

This torrent was uploaded from www.TheBox.bz (signup is open and free) - the home of all British TV

Programme following the England star and Rugby World Cup winner as he meets some of the 4,500 competitors taking part in the Tough Guy race, held over rough Staffordshire terrain since 1987. Organiser Billy Wilson's epic challenge consists of an eight mile long assault course, reputed to be one of the toughest in the world. Competitors must swim in freezing water, climb terrifying obstacles, run through fire, crawl through dark tunnels, and slither under barbed wire

Matt Dawson's Tough Guy Race  (22nd July 2009) [TVRip (DivX)] preview 0

Shown ITV 4 22nd July 2009

General
Format : AVI
Format/Info : Audio Video Interleave
File size : 577 MiB
Duration : 45mn 37s
Overall bit rate : 1 769 Kbps

Video
ID : 0
Format : MPEG-4 Visual
Format settings, BVOP : Yes
Format settings, QPel : No
Format settings, GMC : No warppoints
Format settings, Matrix : Default (H.263)
Codec ID : DIVX
Codec ID/Info : Project Mayo
Codec ID/Hint : DivX 4
Duration : 45mn 37s
Bit rate : 1 501 Kbps
Width : 512 pixels
Height : 384 pixels
Display aspect ratio : 4/3
Frame rate : 25.000 fps
Resolution : 24 bits
Scan type : Progressive
Bits/(Pixel*Frame) : 0.305
Stream size : 490 MiB (85%)

Audio
Format : ADPCM
Codec ID : 11
Codec ID/Info : Intel ADPCM
Duration : 45mn 36s
Bit rate mode : Constant
Bit rate : 256 Kbps
Channel(s) : 2 channels
Sampling rate : 32.0 KHz
Resolution : 4 bits
Stream size : 84.1 MiB (15%)
Interleave, duration : 40 ms (1.00 video frame)

===============================

Some of the other rather spiffing shows available now and always if you signup free @ www.TheBox.bz:

Comedy: The Office, Peep Show, Coupling, Chef, Fawlty Towers, Only Fools and Horses, The IT Crowd, Brass Eye, Nathan Barley, Young Ones, Monty Python, Blackadder, Alan Partridge, Father Ted, Coupling, Little Britain, Mr Bean, Extras, Green Wing, Mighty Boosh

Drama: Casualty, Holby City, The Bill, Hustle, Skins, Shameless, Ashes To Ashes

Entertainment: Faking It, Derren Brown, Scrapheap Challenge, Strictly Come Dancing, Wife Swap

Game/Quiz Shows: Whose Line Is It Anyway?, Have I Got News For You, Deal Or No Deal (UK), Q.I.

Education/Documentary: Planet Earth, Horizon, Panorama, Mark Thomas (Comedy) Product

Food: Hell's Kitchen, Jamie Oliver, The F Word, Kitchen Nightmares, Masterchef, Great British Menu, Gordon Ramsay's Cookalong

Home/Property/Garden: Property Ladder, How Clean Is Your House?, Changing Rooms, Grand Designs, Homes Under The Hammer, To Buy Or Not To Buy

Motoring: Top Gear, Fifth Gear

Music: Top Of The Pops, Jools Holland, Glastonbury

Reality: Big Brother, Celebrity Big Brother, I'm a Celebrity - Get Me Out of Here!, Any Dream Will Do, Grease, Pop Idol, Wife Swap, X Factor, Badger Or Bust, Apprentice UK, Dragons' Den, Britain's Got Talent

Sci-Fi: Doctor Who, Red Dwarf, Torchwood, Primeval

Sport: Football (Soccer), Cricket, Rugby, Snooker, Darts, Formula One (F1GP)

Soaps: Eastenders, Coronation Street, Emmerdale, Neighbours, Hollyoaks

Style/Fashion: What Not To Wear, Project Catwalk

Kids: Teletubbies, Blue Peter, Tikkabilla, Andy Pandy, Postman Pat, Shoebox Zoo, Brum, Bob The Builder, Young Dracula, Sarah Jane Adventures, Shaun The Sheep

related torrents

Torrent name

health leech seeds Size
 

comments (0)

Main Menu