UK

Liverpool 23 Carra Gold(2007)[DVDRip(Xvid)]

  • Download 5x Faster
  • Download torrent
  • Direct Download
  • Rate this torrent +  |  -
Liverpool 23 Carra Gold(2007)[DVDRip(Xvid)]

Anonymous and Free Direct Download 300GB+


Torrent info

Name:Liverpool 23 Carra Gold(2007)[DVDRip(Xvid)]

Total Size: 739.56 MB

Magnet: Magnet Link

Seeds: 2

Leechers: 0

Stream: Watch Online @ Movie4u

Last Updated: 2011-03-05 01:36:48 (Update Now)

Torrent added: 2009-08-26 10:55:13



VPN For Torrents

Torrent Files List


23.Carra.Gold.DVDRip.Xvid-MicX.avi (Size: 739.56 MB) (Files: 1)

 23.Carra.Gold.DVDRip.Xvid-MicX.avi

739.56 MB
 

Announce URL: http://www.thebox.bz:2710/00000000000000000000000000000000/announce

Torrent description

This torrent was uploaded from www.TheBox.bz (signup is open and free) - the home of all British TV

The video is about England's defender Jamie Carragher after servicing 11 years(from 1996 - 2007) for Liverpool Football Club.


====File Information====

General
Complete name : 23.Carra.Gold.DVDRip.Xvid-MicX.avi
Format : AVI
File size : 740 MiB
Duration : 1h 19mn
Overall bit rate : 1301 Kbps
Writing application : Nandub v1.0rc2
Writing library : Nandub build 1852/release

Video
Codec ID : XVID
Codec ID/Hint : XviD
Duration : 1h 19mn
Bit rate : 1100 Kbps
Width : 544 pixels
Height : 416 pixels
Display aspect ratio : 4/3
Frame rate : 25.000 fps
Resolution : 8 bits
Colorimetry : 4:2:0
Scan type : Progressive
Bits/(Pixel*Frame) : 0.194
Stream size : 625 MiB (85%)
Writing library : XviD 1.1.2 (UTC 2006-11-01)

Audio
Format : AC3
Duration : 1h 19mn
Bit rate mode : Constant
Bit rate : 192 Kbps
Channel(s) : 2 channels
Channel positions : L R
Sampling rate : 48.0 KHz
Stream size : 109 MiB (15%)

Liverpool   23 Carra Gold(2007)[DVDRip(Xvid)] preview 0


Liverpool   23 Carra Gold(2007)[DVDRip(Xvid)] preview 1

===============================

Some of the other rather spiffing shows available now and always if you signup free @ www.TheBox.bz:

Comedy: The Office, Peep Show, Coupling, Chef, Fawlty Towers, Only Fools and Horses, The IT Crowd, Brass Eye, Nathan Barley, Young Ones, Monty Python, Blackadder, Alan Partridge, Father Ted, Coupling, Little Britain, Mr Bean, Extras, Green Wing, Mighty Boosh

Drama: Casualty, Holby City, The Bill, Hustle, Skins, Shameless, Ashes To Ashes

Entertainment: Faking It, Derren Brown, Scrapheap Challenge, Strictly Come Dancing, Wife Swap

Game/Quiz Shows: Whose Line Is It Anyway?, Have I Got News For You, Deal Or No Deal (UK), Q.I.

Education/Documentary: Planet Earth, Horizon, Panorama, Mark Thomas (Comedy) Product

Food: Hell's Kitchen, Jamie Oliver, The F Word, Kitchen Nightmares, Masterchef, Great British Menu, Gordon Ramsay's Cookalong

Home/Property/Garden: Property Ladder, How Clean Is Your House?, Changing Rooms, Grand Designs, Homes Under The Hammer, To Buy Or Not To Buy

Motoring: Top Gear, Fifth Gear

Music: Top Of The Pops, Jools Holland, Glastonbury

Reality: Big Brother, Celebrity Big Brother, I'm a Celebrity - Get Me Out of Here!, Any Dream Will Do, Grease, Pop Idol, Wife Swap, X Factor, Badger Or Bust, Apprentice UK, Dragons' Den, Britain's Got Talent

Sci-Fi: Doctor Who, Red Dwarf, Torchwood, Primeval

Sport: Football (Soccer), Cricket, Rugby, Snooker, Darts, Formula One (F1GP)

Soaps: Eastenders, Coronation Street, Emmerdale, Neighbours, Hollyoaks

Style/Fashion: What Not To Wear, Project Catwalk

Kids: Teletubbies, Blue Peter, Tikkabilla, Andy Pandy, Postman Pat, Shoebox Zoo, Brum, Bob The Builder, Young Dracula, Sarah Jane Adventures, Shaun The Sheep

related torrents

Torrent name

health leech seeds Size
 


comments (0)

Main Menu