UK

Life On Mars S01E01 (9 January 2006) [Bluray 720p(x264)] *Subs* DW Staff Approved

  • Download 5x Faster
  • Download torrent
  • Direct Download
  • Rate this torrent +  |  -

Torrent info

Name:Life On Mars S01E01 (9 January 2006) [Bluray 720p(x264)] *Subs* DW Staff Approved

Total Size: 1.66 GB

Magnet: Magnet Link

Seeds: 0

Leechers: 0

Stream: Watch Online @ Movie4u

Last Updated: 2014-12-18 01:03:11 (Update Now)

Torrent added: 2009-08-26 10:53:47




Torrent Files List


Life On Mars - S01E01 (9 January 2006) [Bluray 720P(X264)] - Thebox.RwN.mkv (Size: 1.66 GB) (Files: 2)

 Life On Mars - S01E01 (9 January 2006) [Bluray 720P(X264)] - Thebox.RwN.mkv

1.61 GB

 Life On Mars - S01E01 - SAMPLE - Thebox.RwN-001.mkv

50.19 MB
 

Announce URL:

Torrent description

This torrent was uploaded from www.TheBox.bz (signup is open and free) - the home of all British TV

Life On Mars   S01E01 (9 January 2006) [Bluray 720p(x264)] *Subs*     DW Staff Approved preview 0

Episode info:
A DCI from 2006 wakes from a car crash in 1973 and must figure out how he got there in order to get back and save his girlfriend.

Screens:
Life On Mars   S01E01 (9 January 2006) [Bluray 720p(x264)] *Subs*     DW Staff Approved preview 1
Life On Mars   S01E01 (9 January 2006) [Bluray 720p(x264)] *Subs*     DW Staff Approved preview 2

File Info:

General
Complete name :Life On Mars - S01E01 (9 January 2006) [Bluray 720P(X264)] - Thebox.RwN.mkv
Format : Matroska
File size : 1.61 GiB
Duration : 1h 1mn
Overall bit rate : 3 728 Kbps
Encoded date : UTC 2009-07-04 19:56:28
Writing application : mkvmerge v2.9.0 ('Moanin'') built on May 22 2009 17:46:31
Writing library : libebml v0.7.7 + libmatroska v0.8.1

Video
ID : 1
Format : AVC
Format/Info : Advanced Video Codec
Format profile : [email protected]
Format settings, CABAC : Yes
Format settings, ReFrames : 3 frames
Muxing mode : Container [email protected]
Codec ID : V_MPEG4/ISO/AVC
Duration : 1h 1mn
Bit rate : 3 077 Kbps
Nominal bit rate : 3 150 Kbps
Width : 1 280 pixels
Height : 720 pixels
Display aspect ratio : 16/9
Frame rate : 23.976 fps
Resolution : 24 bits
Colorimetry : 4:2:0
Scan type : Progressive
Bits/(Pixel*Frame) : 0.139
Stream size : 1.32 GiB (82%)
Writing library : x264 core 65 r1029M cb3c213

Audio #1
ID : 2
Format : AC-3
Format/Info : Audio Coding 3
Codec ID : A_AC3
Duration : 1h 1mn
Bit rate mode : Constant
Bit rate : 384 Kbps
Channel(s) : 6 channels
Channel positions : Front: L C R, Surround: L R, LFE
Sampling rate : 48.0 KHz
Stream size : 169 MiB (10%)
Language : English

Audio #2
ID : 3
Format : AC-3
Format/Info : Audio Coding 3
Codec ID : A_AC3
Duration : 1h 1mn
Bit rate mode : Constant
Bit rate : 192 Kbps
Channel(s) : 2 channels
Channel positions : L R
Sampling rate : 48.0 KHz
Stream size : 84.7 MiB (5%)
Language : English

Text
ID : 4
Format : UTF-8
Codec ID : S_TEXT/UTF8
Codec ID/Info : UTF-8 Plain Text
Language : English


DW Staff Approved - [url]http://thebox.bz/forums.php?action=viewtopic&topicid=23408[/url]

Please DO NOT upload anywhere else

this was ripped and encoded by me with guides and advice in the forum so a massive thanks goes to them


Sorry i will not be doing the rest of the series as i think too many people are moaning about the source and i can't be arsed to encode anymore LOM if all i get is grief, sorry to the people who thanks me for uploading:weep::weep:

===============================

Some of the other rather spiffing shows available now and always if you signup free @ www.TheBox.bz:

Comedy: The Office, Peep Show, Coupling, Chef, Fawlty Towers, Only Fools and Horses, The IT Crowd, Brass Eye, Nathan Barley, Young Ones, Monty Python, Blackadder, Alan Partridge, Father Ted, Coupling, Little Britain, Mr Bean, Extras, Green Wing, Mighty Boosh

Drama: Casualty, Holby City, The Bill, Hustle, Skins, Shameless, Ashes To Ashes

Entertainment: Faking It, Derren Brown, Scrapheap Challenge, Strictly Come Dancing, Wife Swap

Game/Quiz Shows: Whose Line Is It Anyway?, Have I Got News For You, Deal Or No Deal (UK), Q.I.

Education/Documentary: Planet Earth, Horizon, Panorama, Mark Thomas (Comedy) Product

Food: Hell's Kitchen, Jamie Oliver, The F Word, Kitchen Nightmares, Masterchef, Great British Menu, Gordon Ramsay's Cookalong

Home/Property/Garden: Property Ladder, How Clean Is Your House?, Changing Rooms, Grand Designs, Homes Under The Hammer, To Buy Or Not To Buy

Motoring: Top Gear, Fifth Gear

Music: Top Of The Pops, Jools Holland, Glastonbury

Reality: Big Brother, Celebrity Big Brother, I'm a Celebrity - Get Me Out of Here!, Any Dream Will Do, Grease, Pop Idol, Wife Swap, X Factor, Badger Or Bust, Apprentice UK, Dragons' Den, Britain's Got Talent

Sci-Fi: Doctor Who, Red Dwarf, Torchwood, Primeval

Sport: Football (Soccer), Cricket, Rugby, Snooker, Darts, Formula One (F1GP)

Soaps: Eastenders, Coronation Street, Emmerdale, Neighbours, Hollyoaks

Style/Fashion: What Not To Wear, Project Catwalk

Kids: Teletubbies, Blue Peter, Tikkabilla, Andy Pandy, Postman Pat, Shoebox Zoo, Brum, Bob The Builder, Young Dracula, Sarah Jane Adventures, Shaun The Sheep

related torrents

Torrent name

health leech seeds Size
 


comments (0)

Main Menu