Action

Kings Of South Beach TR EN AC3 DvDRip XviD TLine

  • Download 5x Faster
  • Download torrent
  • Direct Download
  • Rate this torrent +  |  -
Kings Of South Beach TR EN AC3 DvDRip XviD TLine

Anonymous and Free Direct Download


Torrent info

Name:Kings Of South Beach TR EN AC3 DvDRip XviD TLine

Total Size: 1.36 GB

Magnet: Magnet Link

Seeds: 0

Leechers: 0

Stream: Watch Online @ Movie4u

Last Updated: 2016-01-30 12:22:59 (Update Now)

Torrent added: 2008-08-02 12:41:59



VPN For Torrents

Torrent Files List


Kings Of South Beach.TR-EN AC3.DvDRip.XviD-TLine.cd1 (Size: 1.36 GB) (Files: 18)

 Kings Of South Beach.TR-EN AC3.DvDRip.XviD-TLine.cd1

  king.cd1.txt

2.68 KB

  Kings Of South Beach.TR-EN AC3.DvDRip.XviD-TLine.cd1.part1.rar

95.78 MB

  Kings Of South Beach.TR-EN AC3.DvDRip.XviD-TLine.cd1.part2.rar

95.78 MB

  Kings Of South Beach.TR-EN AC3.DvDRip.XviD-TLine.cd1.part3.rar

95.78 MB

  Kings Of South Beach.TR-EN AC3.DvDRip.XviD-TLine.cd1.part4.rar

95.78 MB

  Kings Of South Beach.TR-EN AC3.DvDRip.XviD-TLine.cd1.part5.rar

95.78 MB

  Kings Of South Beach.TR-EN AC3.DvDRip.XviD-TLine.cd1.part6.rar

95.78 MB

  Kings Of South Beach.TR-EN AC3.DvDRip.XviD-TLine.cd1.part7.rar

95.78 MB

  Kings Of South Beach.TR-EN AC3.DvDRip.XviD-TLine.cd1.part8.rar

27.26 MB

 Kings Of South Beach.TR-EN AC3.DvDRip.XviD-TLine.cd2

  king.cd2.txt

2.77 KB

  Kings Of South Beach.TR-EN AC3.DvDRip.XviD-TLine.cd2.part1.rar

95.78 MB

  Kings Of South Beach.TR-EN AC3.DvDRip.XviD-TLine.cd2.part2.rar

95.78 MB

  Kings Of South Beach.TR-EN AC3.DvDRip.XviD-TLine.cd2.part3.rar

95.78 MB

  Kings Of South Beach.TR-EN AC3.DvDRip.XviD-TLine.cd2.part4.rar

95.78 MB

  Kings Of South Beach.TR-EN AC3.DvDRip.XviD-TLine.cd2.part5.rar

95.78 MB

  Kings Of South Beach.TR-EN AC3.DvDRip.XviD-TLine.cd2.part6.rar

95.78 MB

  Kings Of South Beach.TR-EN AC3.DvDRip.XviD-TLine.cd2.part7.rar

95.78 MB

  Kings Of South Beach.TR-EN AC3.DvDRip.XviD-TLine.cd2.part8.rar

26.07 MB
 

tracker

leech seeds
 

Torrent description

Kings Of South Beach.TR-EN AC3.DvDRip.XviD-TLine
http://www.imdb.com/title/tt0780059/

Ripper : 17mayis
Format : AVI
Format/Info : Audio Video Interleave
File size : 700 MiB
Duration : 41mn 7s
Overall bit rate : 2380 Kbps
Writing application : VirtualDubMod 1.5.4.1 (build 2178/release)
Writing library : VirtualDubMod build 2178/release
IAS1 : English / English
IAS2 : Turkish / Turkish

Video
Format : MPEG-4 Visual
Format profile : Streaming [email protected]
Format settings, BVOP : Yes
Format settings, QPel : No
Format settings, GMC : No warppoints
Format settings, Matrix : Custom
Codec ID : XVID
Codec ID/Hint : XviD
Duration : 41mn 7s
Bit rate : 1699 Kbps
Width : 720 pixels
Height : 416 pixels
Display aspect ratio : 16/9
Frame rate : 25.000 fps
Resolution : 8 bits
Colorimetry : 4:2:0
Scan type : Progressive
Bits/(Pixel*Frame) : 0.227
Stream size : 500 MiB (71%)
Writing library : XviD 1.2.0.dev47 (UTC 2006-11-01)

Audio #1
Format : AC-3
Format/Info : Audio Coding 3
Codec ID : 2000
Duration : 41mn 7s
Bit rate mode : Constant
Bit rate : 448 Kbps
Channel(s) : 6 channels
Channel positions : Front: L C R, Rear: L R, LFE
Sampling rate : 48.0 KHz
Stream size : 132 MiB (19%)
Alignment : Aligned on interleaves
Interleave, duration : 96 ms (2.40 video frames)
Interleave, preload duration : 96 ms

Audio #2
Format : AC-3
Format/Info : Audio Coding 3
Codec ID : 2000
Duration : 41mn 7s
Bit rate mode : Constant
Bit rate : 224 Kbps
Channel(s) : 2 channels
Channel positions : L R
Sampling rate : 48.0 KHz
Stream size : 65.9 MiB (9%)
Alignment : Aligned on interleaves
Interleave, duration : 96 ms (2.40 video frames)
Interleave, preload duration : 96 ms

related torrents

Torrent name

health leech seeds Size
 


comments (0)

Main Menu