Sports related

Tour de France 2009 Full Stages Highlights 720P VersusHD XviD luckycentury

  • Download 5x Faster
  • Download torrent
  • Direct Download
  • Rate this torrent +  |  -

Torrent info

Name:Tour de France 2009 Full Stages Highlights 720P VersusHD XviD luckycentury

Total Size: 4.24 GB

Magnet: Magnet Link

Seeds: 0

Leechers: 0

Stream: Watch Online @ Movie4u

Last Updated: 2017-04-13 09:49:00 (Update Now)

Torrent added: 2009-08-26 10:39:05



VPN For Torrents

Torrent Files List


Stage 01 highlights.avi (Size: 4.24 GB) (Files: 21)

 Stage 01 highlights.avi

144.16 MB

 Stage 02 highlights.avi

179.75 MB

 Stage 03 highlights.avi

134.27 MB

 Stage 04 highlights.avi

227.11 MB

 Stage 05 highlights.avi

152.95 MB

 Stage 06 highlights.avi

195.91 MB

 Stage 07 highlights.avi

285.93 MB

 Stage 08 highlights.avi

194.09 MB

 Stage 09 highlights.avi

196.25 MB

 Stage 10 highlights.avi

181.12 MB

 Stage 11 highlights.avi

168.34 MB

 Stage 12 highlights.avi

235.44 MB

 Stage 13 highlights.avi

173.11 MB

 Stage 14 highlights.avi

148.28 MB

 Stage 15 highlights.avi

240.69 MB

 Stage 16 highlights.avi

263.77 MB

 Stage 17 highlights.avi

267.98 MB

 Stage 18 highlights.avi

277.51 MB

 Stage 19 highlights.avi

178.36 MB

 Stage 20 highlights.avi

271.03 MB

 Stage 21 highlights.avi

227.37 MB
 

tracker

leech seeds
 

Torrent description

full stages highlights

DVD size

General
Complete name : I:\Tour.de.France.2009.Highlights.720P.VersusHD.XviD-Luckycentury\Stage 01 highlights.avi
Format : AVI
Format/Info : Audio Video Interleave
File size : 144 MiB
Duration : 3mn 51s
Overall bit rate : 5 230 Kbps
Writing application : AirEncoder-Lavf52.31.0

Video
Format : MPEG-4 Visual
Format profile : [email protected]
Format settings, BVOP : No
Format settings, QPel : No
Format settings, GMC : No warppoints
Format settings, Matrix : Default
Codec ID : XVID
Codec ID/Hint : XviD
Duration : 3mn 50s
Bit rate : 4 980 Kbps
Width : 1 280 pixels
Height : 720 pixels
Display aspect ratio : 16/9
Frame rate : 29.970 fps
Resolution : 24 bits
Colorimetry : 4:2:0
Scan type : Progressive
Bits/(Pixel*Frame) : 0.180
Stream size : 137 MiB (95%)
Writing library : XviD 50

Audio
Format : MPEG Audio
Format version : Version 1
Format profile : Layer 3
Codec ID : 55
Codec ID/Hint : MP3
Duration : 3mn 51s
Bit rate mode : Constant
Bit rate : 256 Kbps
Channel(s) : 2 channels
Sampling rate : 48.0 KHz
Resolution : 16 bits
Stream size : 7.06 MiB (5%)
Alignment : Aligned on interleaves
Interleave, duration : 24 ms (0.72 video frame)
Writing library : LAME3.98.2

related torrents

Torrent name

health leech seeds Size
 


comments (0)

Main Menu