UK

Holyrood and the Search for Scotland's Soul (28th June 2009) [PDTV (DivX)]

  • Download 5x Faster
  • Download torrent
  • Direct Download
  • Rate this torrent +  |  -
Holyrood and the Search for Scotland's Soul (28th June 2009) [PDTV (DivX)]

Free and Direct Download with Usenet 300GB+ free


Torrent info

Name:Holyrood and the Search for Scotland's Soul (28th June 2009) [PDTV (DivX)]

Total Size: 558.64 MB

Magnet: Magnet Link

Seeds: 0

Leechers: 0

Stream: Watch Online @ Movie4u

Last Updated: 2012-07-26 12:10:36 (Update Now)

Torrent added: 2009-08-26 10:37:19




Torrent Files List


Holyrood and the Search for Scotland's Soul (28th June 2009) [PDTV (DivX)].avi (Size: 558.64 MB) (Files: 1)

 Holyrood and the Search for Scotland's Soul (28th June 2009) [PDTV (DivX)].avi

558.64 MB
 

Announce URL:

Torrent description

This torrent was uploaded from www.TheBox.bz (signup is open and free) - the home of all British TV

Holyrood and the Search for Scotland's Soul
Holyrood and the Search for Scotland's Soul (28th June 2009) [PDTV (DivX)] preview 0


______________________________________________________________________________________________________________________________________________________________________

It has been ten years since Scotland got its parliament back. A nationalist government in Edinburgh is planning a referendum on independence. Will that happen? Or are we now seeing the settled state of the union?

BBC Scotland's Political Editor Brian Taylor argues that the parliament came about to recognise a separate Scottish identity; that Scots felt different to the rest of the country, and wanted that reflected in their politics. But has Holyrood satisfied that need, or is more change needed?

Including interviews with Alex Salmond, David Cameron, Gordon Brown and the man who delivered devolution, Tony Blair, the film asks: how did we get here? And where are we going next?

On: BBC One (Scotland only)
Date: Sunday 28th June 2009
Time: 22:20
____________________________________________________________________________________________________________________________________________________________________

File Info:

=== File Information ===
File Name: Holyrood and the Search for Scotland's Soul (28th June 2009) [PDTV (DivX)]
Duration: 00:58:16
File Size: 58 MB (585,777,152 bytes)

=== Video Information ===

Format : AVI
Format/Info : Audio Video Interleave
Format profile : OpenDML
File size : 1.78 GiB
Duration : 2h 27mn
Overall bit rate : 1 729 Kbps
Writing application : Lavf50.6.0

Video
Format : xvid
Codec ID : xvid
Duration : 2h 27mn
Bit rate : 1 699 Kbps
Width : 1 024 pixels
Height : 568 pixels
Display aspect ratio : 16/9
Frame rate : 25.000 fps
Resolution : 24 bits
Bits/(Pixel*Frame) : 0.117
Stream size : 1.75 GiB (98%)

Audio
Format : MPEG Audio
Format version : Version 1
Format profile : Layer 3
Codec ID : 55
Codec ID/Hint : MP3
Duration : 58mn 16s
Bit rate mode : Constant
Bit rate : 64.0 Kbps
Channel(s) : 2 channels
Sampling rate : 44.1 KHz
Resolution : 16 bits
Stream size : 26.7 MiB (1%)
Alignment : Aligned on interleaves
Interleave, duration : 26 ms (0.65 video frame)



===============================

Some of the other rather spiffing shows available now and always if you signup free @ www.TheBox.bz:

Comedy: The Office, Peep Show, Coupling, Chef, Fawlty Towers, Only Fools and Horses, The IT Crowd, Brass Eye, Nathan Barley, Young Ones, Monty Python, Blackadder, Alan Partridge, Father Ted, Coupling, Little Britain, Mr Bean, Extras, Green Wing, Mighty Boosh

Drama: Casualty, Holby City, The Bill, Hustle, Skins, Shameless, Ashes To Ashes

Entertainment: Faking It, Derren Brown, Scrapheap Challenge, Strictly Come Dancing, Wife Swap

Game/Quiz Shows: Whose Line Is It Anyway?, Have I Got News For You, Deal Or No Deal (UK), Q.I.

Education/Documentary: Planet Earth, Horizon, Panorama, Mark Thomas (Comedy) Product

Food: Hell's Kitchen, Jamie Oliver, The F Word, Kitchen Nightmares, Masterchef, Great British Menu, Gordon Ramsay's Cookalong

Home/Property/Garden: Property Ladder, How Clean Is Your House?, Changing Rooms, Grand Designs, Homes Under The Hammer, To Buy Or Not To Buy

Motoring: Top Gear, Fifth Gear

Music: Top Of The Pops, Jools Holland, Glastonbury

Reality: Big Brother, Celebrity Big Brother, I'm a Celebrity - Get Me Out of Here!, Any Dream Will Do, Grease, Pop Idol, Wife Swap, X Factor, Badger Or Bust, Apprentice UK, Dragons' Den, Britain's Got Talent

Sci-Fi: Doctor Who, Red Dwarf, Torchwood, Primeval

Sport: Football (Soccer), Cricket, Rugby, Snooker, Darts, Formula One (F1GP)

Soaps: Eastenders, Coronation Street, Emmerdale, Neighbours, Hollyoaks

Style/Fashion: What Not To Wear, Project Catwalk

Kids: Teletubbies, Blue Peter, Tikkabilla, Andy Pandy, Postman Pat, Shoebox Zoo, Brum, Bob The Builder, Young Dracula, Sarah Jane Adventures, Shaun The Sheep

related torrents

Torrent name

health leech seeds Size
 

comments (0)

Main Menu