UK

Elton John : Tantrums and Tiaras (1997) [DVD (iso)]

  • Download 5x Faster
  • Download torrent
  • Direct Download
  • Rate this torrent +  |  -
Elton John : Tantrums and Tiaras (1997) [DVD (iso)]

Free and Direct Download with Usenet.nl 300GB+ free


Torrent info

Name:Elton John : Tantrums and Tiaras (1997) [DVD (iso)]

Total Size: 6.08 GB

Magnet: Magnet Link

Seeds: 5

Leechers: 0

Stream: Watch Online @ Movie4u

Last Updated: 2010-12-01 10:23:57 (Update Now)

Torrent added: 2009-08-26 10:02:06





Torrent Files List


TANTRUMS_AND_TIARAS.iso (Size: 6.08 GB) (Files: 1)

 TANTRUMS_AND_TIARAS.iso

6.08 GB
 

Announce URL: http://www.thebox.bz:2710/00000000000000000000000000000000/announce

Torrent description

This torrent was uploaded from www.TheBox.bz (signup is open and free) - the home of all British TV

Elton John : Tantrums and Tiaras (1997) [DVD (iso)] preview 0
This incredibly personal documentary offers an extraordinary insight into one of the world's greatest musical talents and his larger than life lifestyle. For the first time Elton John gives a camera crew unprecedented access into his personal and professional lives. This remarkably brave and honest film gives the viewer a fascinating and touching look at the complex character of a modern day composer and performing artist.

Directed by his partner, David Furnish, the film chronicles the year 1995, one of the most successful years in Elton's multi-faceted career. The Brit Awards, the Academy Awards, a new album release and a massive world tour provide the backdrop for some frank, funny and touching filmmaking.

Features:
First Time Ever: Commentary featuring Elton John and (Partner/Director) David Furnish
Never-Before-Seen Footage featuring Rod Stewart, Kylie Minogue, and Fashion Industry Icons Mario Testino & Gianni Versace
Deleted Scenes
Bloopers

Video:
Standard 1.33:1 Color

Audio:
ENGLISH: Dolby Digital Stereo

100% Untouched NTSC Retail DVD

I hope some of you will enjoy this release.

Video
ID : 224 (0xE0)
Format : MPEG Video
Format version : Version 2
Format profile : [email protected]
Format settings, Matrix : Default
Bit rate mode : Variable
Bit rate : 6 406 Kbps
Nominal bit rate : 9 800 Kbps
Width : 720 pixels
Height : 480 pixels
Display aspect ratio : 4/3
Frame rate : 29.970 fps
Standard : NTSC
Colorimetry : 4:2:0
Scan type : Interlaced
Scan order : Top Field First
Bits/(Pixel*Frame) : 0.618
Stream size : 927 MiB (91%)

Audio #1
ID : 128 (0x80)
Format : AC-3
Format/Info : Audio Coding 3
Bit rate mode : Constant
Bit rate : 192 Kbps
Channel(s) : 2 channels
Channel positions : L R
Sampling rate : 48.0 KHz
Video delay : -143ms
Stream size : 27.8 MiB (3%)

Audio #2
ID : 129 (0x81)
Format : AC-3
Format/Info : Audio Coding 3
Bit rate mode : Constant
Bit rate : 192 Kbps
Channel(s) : 2 channels
Channel positions : L R
Sampling rate : 48.0 KHz
Video delay : -143ms
Stream size : 27.8 MiB (3%)


===============================

Some of the other rather spiffing shows available now and always if you signup free @ www.TheBox.bz:

Comedy: The Office, Peep Show, Coupling, Chef, Fawlty Towers, Only Fools and Horses, The IT Crowd, Brass Eye, Nathan Barley, Young Ones, Monty Python, Blackadder, Alan Partridge, Father Ted, Coupling, Little Britain, Mr Bean, Extras, Green Wing, Mighty Boosh

Drama: Casualty, Holby City, The Bill, Hustle, Skins, Shameless, Ashes To Ashes

Entertainment: Faking It, Derren Brown, Scrapheap Challenge, Strictly Come Dancing, Wife Swap

Game/Quiz Shows: Whose Line Is It Anyway?, Have I Got News For You, Deal Or No Deal (UK), Q.I.

Education/Documentary: Planet Earth, Horizon, Panorama, Mark Thomas (Comedy) Product

Food: Hell's Kitchen, Jamie Oliver, The F Word, Kitchen Nightmares, Masterchef, Great British Menu, Gordon Ramsay's Cookalong

Home/Property/Garden: Property Ladder, How Clean Is Your House?, Changing Rooms, Grand Designs, Homes Under The Hammer, To Buy Or Not To Buy

Motoring: Top Gear, Fifth Gear

Music: Top Of The Pops, Jools Holland, Glastonbury

Reality: Big Brother, Celebrity Big Brother, I'm a Celebrity - Get Me Out of Here!, Any Dream Will Do, Grease, Pop Idol, Wife Swap, X Factor, Badger Or Bust, Apprentice UK, Dragons' Den, Britain's Got Talent

Sci-Fi: Doctor Who, Red Dwarf, Torchwood, Primeval

Sport: Football (Soccer), Cricket, Rugby, Snooker, Darts, Formula One (F1GP)

Soaps: Eastenders, Coronation Street, Emmerdale, Neighbours, Hollyoaks

Style/Fashion: What Not To Wear, Project Catwalk

Kids: Teletubbies, Blue Peter, Tikkabilla, Andy Pandy, Postman Pat, Shoebox Zoo, Brum, Bob The Builder, Young Dracula, Sarah Jane Adventures, Shaun The Sheep

related torrents

Torrent name

health leech seeds Size
 

comments (0)

Main Menu