UK

Dragons' Den S07E01 (15th July 2009) [HDTV 720p (x264)]

  • Download 5x Faster
  • Download torrent
  • Direct Download
  • Rate this torrent +  |  -
Dragons' Den S07E01 (15th July 2009) [HDTV 720p (x264)]

Free and Direct Download with Usenet.nl 300GB+ free


Torrent info

Name:Dragons' Den S07E01 (15th July 2009) [HDTV 720p (x264)]

Total Size: 1.46 GB

Magnet: Magnet Link

Seeds: 2

Leechers: 0

Stream: Watch Online @ Movie4u

Last Updated: 2010-09-26 14:43:48 (Update Now)

Torrent added: 2009-08-26 09:53:07





Torrent Files List


Dragons.Den.S07E01.720p.HDTV.x264-aAF.mkv (Size: 1.46 GB) (Files: 1)

 Dragons.Den.S07E01.720p.HDTV.x264-aAF.mkv

1.46 GB
 

Announce URL: http://www.thebox.bz:2710/00000000000000000000000000000000/announce

Torrent description

This torrent was uploaded from www.TheBox.bz (signup is open and free) - the home of all British TV

Dragons' Den   S07E01 (15th July 2009) [HDTV 720p (x264)] preview 0

Dragons' Den

On: BBC 2 London
Date: Wednesday 15th July 2009
Time: 21:00 to 22:00

The banks may not be parting with their funds right now, but will our multi-millionaire Dragons still be prepared to back the best business with their own money? Alan Mandel Butler is looking for investment in a horror-based scare attraction. How will the Dragons respond to Katie Olver who has them starring in her personalised romance novels? Plus an eco-friendly patio heater, a more cat-friendly collar, a hat to make wrinkles disappear and an invention that puts an end to nuisance phone calls.


[font=Courier New]Complete name : Dragons.Den.S07E01.720p.HDTV.x264-aAF.mkv
Format : Matroska
File size : 1.46 GiB
Duration : 58mn 38s
Overall bit rate : 3 558 Kbps
Encoded date : UTC 2009-07-16 01:35:00
Writing application : mkvmerge v2.5.1 ('He Wasn't There') built on Feb 22 2009 18:19:47
Writing library : libebml v0.7.7 + libmatroska v0.8.1

ID : 1
Format : AVC
Format/Info : Advanced Video Codec
Format profile : [email protected]
Format settings, CABAC : Yes
Format settings, ReFrames : 3 frames
Muxing mode : Container [email protected]
Codec ID : V_MPEG4/ISO/AVC
Duration : 58mn 38s
Bit rate : 3 104 Kbps
Nominal bit rate : 3 171 Kbps
Width : 1 280 pixels
Height : 720 pixels
Display aspect ratio : 16/9
Frame rate : 25.000 fps
Resolution : 24 bits
Colorimetry : 4:2:0
Scan type : Progressive
Bits/(Pixel*Frame) : 0.135
Stream size : 1.27 GiB (87%)
Writing library : x264 core 68 r1181M 49bf767
Language : English

ID : 2
Format : AC-3
Format/Info : Audio Coding 3
Codec ID : A_AC3
Duration : 58mn 38s
Bit rate mode : Constant
Bit rate : 384 Kbps
Channel(s) : 2 channels
Channel positions : L R
Sampling rate : 48.0 KHz
Video delay : 18ms
Stream size : 161 MiB (11%)
Language : English

===============================

Some of the other rather spiffing shows available now and always if you signup free @ www.TheBox.bz:

Comedy: The Office, Peep Show, Coupling, Chef, Fawlty Towers, Only Fools and Horses, The IT Crowd, Brass Eye, Nathan Barley, Young Ones, Monty Python, Blackadder, Alan Partridge, Father Ted, Coupling, Little Britain, Mr Bean, Extras, Green Wing, Mighty Boosh

Drama: Casualty, Holby City, The Bill, Hustle, Skins, Shameless, Ashes To Ashes

Entertainment: Faking It, Derren Brown, Scrapheap Challenge, Strictly Come Dancing, Wife Swap

Game/Quiz Shows: Whose Line Is It Anyway?, Have I Got News For You, Deal Or No Deal (UK), Q.I.

Education/Documentary: Planet Earth, Horizon, Panorama, Mark Thomas (Comedy) Product

Food: Hell's Kitchen, Jamie Oliver, The F Word, Kitchen Nightmares, Masterchef, Great British Menu, Gordon Ramsay's Cookalong

Home/Property/Garden: Property Ladder, How Clean Is Your House?, Changing Rooms, Grand Designs, Homes Under The Hammer, To Buy Or Not To Buy

Motoring: Top Gear, Fifth Gear

Music: Top Of The Pops, Jools Holland, Glastonbury

Reality: Big Brother, Celebrity Big Brother, I'm a Celebrity - Get Me Out of Here!, Any Dream Will Do, Grease, Pop Idol, Wife Swap, X Factor, Badger Or Bust, Apprentice UK, Dragons' Den, Britain's Got Talent

Sci-Fi: Doctor Who, Red Dwarf, Torchwood, Primeval

Sport: Football (Soccer), Cricket, Rugby, Snooker, Darts, Formula One (F1GP)

Soaps: Eastenders, Coronation Street, Emmerdale, Neighbours, Hollyoaks

Style/Fashion: What Not To Wear, Project Catwalk

Kids: Teletubbies, Blue Peter, Tikkabilla, Andy Pandy, Postman Pat, Shoebox Zoo, Brum, Bob The Builder, Young Dracula, Sarah Jane Adventures, Shaun The Sheep

related torrents

Torrent name

health leech seeds Size
 

comments (0)

Main Menu