UK

Doctor Who Planet of The Dead (11th April 2009) [BluRay 720p (x264)]

  • Download 5x Faster
  • Download torrent
  • Direct Download
  • Rate this torrent +  |  -

Torrent info

Name:Doctor Who Planet of The Dead (11th April 2009) [BluRay 720p (x264)]

Total Size: 2.65 GB

Magnet: Magnet Link

Seeds: 0

Leechers: 0

Stream: Watch Online @ Movie4u

Last Updated: 2015-05-24 02:40:12 (Update Now)

Torrent added: 2009-08-26 09:50:55



VPN For Torrents

Torrent Files List


avc-docwhopotd.mkv (Size: 2.65 GB) (Files: 2)

 avc-docwhopotd.mkv

2.65 GB

 avc-docwhopotd.nfo

0.33 KB
 

tracker

leech seeds
 

Torrent description

This torrent was uploaded from www.TheBox.bz (signup is open and free) - the home of all British TV

Doctor Who   Planet of The Dead (11th April 2009) [BluRay 720p (x264)] preview 0

Doctor.Who.Planet.Of.The.Dead.2009.720p.Bluray.x264-AVCHD

Following an audacious theft from a high security museum, the mysterious Lady Christina (Ryan) makes a daring escape onto a London bus where she encounters the Doctor. Soon the pair are transported via a wormhole to an unknown desert planet where they encounter a deadly swarm of aliens who are capable of devouring humans.

Aided by eccentric scientist Malcolm (Evans), the duo face a race against time to unlock the secrets of the alien planet and stop the terrifying swarm from wiping out every human on Earth.

[font=Courier New]AVCHD PRESENTS

Doctor.Who.Planet.Of.The.Dead.2009.720p.Bluray.x264-AVCHD

Year: 2009
Country: UK
Video: 1280x720 (720p) 4917K (29.970 fps
Audio: DTS 1536K
Genre: Movie
Language: English

Notes

http://www.amazon.co.uk/Planet-Dead-Blu-ray-David-Tennant/dp/B00280LFN6/ref=sr11?ie=UTF8&s=dvd&qid=1246517039&sr=8-1



[font=Courier New]General
Complete name : C:\Documents and Settings\Administrator\Desktop\Downloads\Doctor.Who.Planet.Of.The.Dead.2009.720p.Bluray.x264-AVCHD\avc-docwhopotd.mkv
Format : Matroska
File size : 2.65 GiB
Duration : 58mn 58s
Overall bit rate : 6 429 Kbps
Encoded date : UTC 2009-07-01 17:47:47
Writing application : mkvmerge v2.9.5 ('Tu es le seul') built on Jun 7 2009 11:07:07
Writing library : libebml v0.7.7 + libmatroska v0.8.1

Video
ID : 1
Format : AVC
Format/Info : Advanced Video Codec
Format profile : [email protected]
Format settings, CABAC : Yes
Format settings, ReFrames : 5 frames
Muxing mode : Container [email protected]
Codec ID : V_MPEG4/ISO/AVC
Duration : 58mn 54s
Bit rate : 4 791 Kbps
Nominal bit rate : 4 917 Kbps
Width : 1 280 pixels
Height : 720 pixels
Display aspect ratio : 16/9
Frame rate : 29.970 fps
Resolution : 24 bits
Colorimetry : 4:2:0
Scan type : Progressive
Bits/(Pixel*Frame) : 0.173
Stream size : 1.97 GiB (74%)
Writing library : x264 core 67 r1173M f6d3166
Encoding settings : cabac=1 / ref=5 / deblock=1:0:0 / analyse=0x3:0x133 / me=umh / subme=8 / psy_rd=1.0:0.0 / mixed_ref=1 / me_range=16 / chroma_me=1 / trellis=1 / 8x8dct=1 / cqm=0 / deadzone=21,11 / chroma_qp_offset=-2 / threads=6 / nr=0 / decimate=1 / mbaff=0 / bframes=3 / b_pyramid=1 / b_adapt=1 / b_bias=0 / direct=1 / wpredb=1 / keyint=250 / keyint_min=25 / scenecut=40 / rc=2pass / bitrate=4917 / ratetol=1.0 / qcomp=0.60 / qpmin=10 / qpmax=51 / qpstep=4 / cplxblur=20.0 / qblur=0.5 / ip_ratio=1.40 / pb_ratio=1.30 / aq=1:1.00
Language : English

Audio
ID : 2
Format : DTS
Format/Info : Digital Theater Systems
Codec ID : A_DTS
Duration : 58mn 58s
Bit rate mode : Constant
Bit rate : 1 510 Kbps
Channel(s) : 6 channels
Channel positions : Front: L C R, Surround: L R, LFE
Sampling rate : 48.0 KHz
Resolution : 24 bits
Stream size : 637 MiB (23%)

===============================

Some of the other rather spiffing shows available now and always if you signup free @ www.TheBox.bz:

Comedy: The Office, Peep Show, Coupling, Chef, Fawlty Towers, Only Fools and Horses, The IT Crowd, Brass Eye, Nathan Barley, Young Ones, Monty Python, Blackadder, Alan Partridge, Father Ted, Coupling, Little Britain, Mr Bean, Extras, Green Wing, Mighty Boosh

Drama: Casualty, Holby City, The Bill, Hustle, Skins, Shameless, Ashes To Ashes

Entertainment: Faking It, Derren Brown, Scrapheap Challenge, Strictly Come Dancing, Wife Swap

Game/Quiz Shows: Whose Line Is It Anyway?, Have I Got News For You, Deal Or No Deal (UK), Q.I.

Education/Documentary: Planet Earth, Horizon, Panorama, Mark Thomas (Comedy) Product

Food: Hell's Kitchen, Jamie Oliver, The F Word, Kitchen Nightmares, Masterchef, Great British Menu, Gordon Ramsay's Cookalong

Home/Property/Garden: Property Ladder, How Clean Is Your House?, Changing Rooms, Grand Designs, Homes Under The Hammer, To Buy Or Not To Buy

Motoring: Top Gear, Fifth Gear

Music: Top Of The Pops, Jools Holland, Glastonbury

Reality: Big Brother, Celebrity Big Brother, I'm a Celebrity - Get Me Out of Here!, Any Dream Will Do, Grease, Pop Idol, Wife Swap, X Factor, Badger Or Bust, Apprentice UK, Dragons' Den, Britain's Got Talent

Sci-Fi: Doctor Who, Red Dwarf, Torchwood, Primeval

Sport: Football (Soccer), Cricket, Rugby, Snooker, Darts, Formula One (F1GP)

Soaps: Eastenders, Coronation Street, Emmerdale, Neighbours, Hollyoaks

Style/Fashion: What Not To Wear, Project Catwalk

Kids: Teletubbies, Blue Peter, Tikkabilla, Andy Pandy, Postman Pat, Shoebox Zoo, Brum, Bob The Builder, Young Dracula, Sarah Jane Adventures, Shaun The Sheep

related torrents

Torrent name

health leech seeds Size
 


comments (0)

Main Menu