Drama

Forest Gump [1994] DVDRip N!CK

  • Download 5x Faster
  • Download torrent
  • Direct Download
  • Rate this torrent +  |  -
Forest Gump [1994] DVDRip N!CK

Free and Direct Download with Usenet.nl 300GB+ free


Torrent info

Name:Forest Gump [1994] DVDRip N!CK

Total Size: 706.18 MB

Magnet: Magnet Link

Seeds: 4

Leechers: 2

Stream: Watch Online @ Movie4u

Last Updated: 2015-08-05 17:21:17 (Update Now)

Torrent added: 2009-08-26 09:34:48





Torrent Files List


Subtitles (Size: 706.18 MB) (Files: 5)

 Subtitles

  Forest Gump [1994] DVDRip [ENG].srt

143.50 KB

  Forest Gump [1994] DVDRip [ROM].srt

100.53 KB

 Forest Gump [1994] DVDRip - N!CK.avi

697.36 MB

 Sample.avi

8.59 MB

 Release Info.txt

0.98 KB
 

tracker

leech seeds
 

Torrent description

General
Complete name : C:\Forest Gump [1994] DVDRip - N!CK\Forest Gump [1994] DVDRip - N!CK.avi
Format : AVI
Format/Info : Audio Video Interleave
File size : 697 MiB
Duration : 2h 19mn
Overal bit rate : 699 Kbps

Video
Format : MPEG-4 Visual
Format profile : Streaming [email protected]
Format settings, BVOP : Yes
Format settings, QPel : No
Format settings, GMC : No warppoints
Format settings, Matrix : Default
Codec ID : XVID
Codec ID/Hint : XviD
Duration : 2h 19mn
Bit rate : 590 Kbps
Width : 640 pixels
Height : 288 pixels
Display aspect ratio : 2.222
Frame rate : 23.976 fps
Resolution : 8 bits
Colorimetry : 4:2:0
Scan type : Progressive
Bits/(Pixel*Frame) : 0.133
Stream size : 589 MiB
Writing library : XviD 50

Audio
Format : MPEG Audio
Format version : Version 1
Format profile : Layer 3
Codec ID : 55
Codec ID/Hint : MP3
Bit rate mode : Constant
Bit rate : 96.0 Kbps
Channel(s) : 2 channels
Sampling rate : 48.0 KHz
Resolution : 16 bits
Stream size : 95.8 MiB

related torrents

Torrent name

health leech seeds Size

Forest Gump (1994) Avi

0 0 800.33 MB 0
 

comments (0)

Main Menu