War

Inglourious Basterds [TS] [Ipod, PSP, Zune Formatted]

  • Download 5x Faster
  • Download torrent
  • Direct Download
  • Rate this torrent +  |  -
Inglourious Basterds [TS] [Ipod, PSP, Zune Formatted]

Free and Direct Download with Usenet.nl 300GB+ free


Torrent info

Name:Inglourious Basterds [TS] [Ipod, PSP, Zune Formatted]

Total Size: 959.59 MB

Magnet: Magnet Link

Seeds: 0

Leechers: 0

Stream: Watch Online @ Movie4u

Last Updated: 2010-08-19 04:39:05 (Update Now)

Torrent added: 2009-08-26 09:34:02





Torrent Files List


Inglourious Basterds [TS].mp4 (Size: 959.59 MB) (Files: 3)

 Inglourious Basterds [TS].mp4

959.59 MB

 Another great torrent!.txt

0.12 KB

 Torrent downloaded from Demonoid.com.txt

0.05 KB
 

Announce URL: http://tracker.thepiratebay.org:80/announce

Torrent description

*Tested*
Tested on Ipod Touch 2nd gen 32gb and Ipod Classic 80Gb

Converting any Movies, TV shows, Music Videos, ect please post your request in the comments.

--------------------------------------------------------------------------------

Do you want to host my file on your website? Want your tracker added to my torrents? Just post your tracker in the comments and I will add it to all of the torrents I release.

--------------------------------------------------------------------------------

Format : MPEG-4
Format profile : Base Media
Codec ID : isom
File size : 960 MiB
Duration : 2h 28mn
Overall bit rate : 903 Kbps
Movie name : devise-ib
Encoded date : UTC 2009-08-24 13:27:27
Tagged date : UTC 2009-08-24 13:27:27
Writing application : Lavf52.31.0

Video
ID : 1
Format : AVC
Format/Info : Advanced Video Codec
Format profile : [email protected]
Format settings, CABAC : No
Format settings, ReFrames : 3 frames
Codec ID : avc1
Codec ID/Info : Advanced Video Coding
Duration : 2h 28mn
Bit rate mode : Variable
Bit rate : 770 Kbps
Width : 480 pixels
Height : 218 pixels
Display aspect ratio : 2.2:1
Frame rate mode : Variable
Frame rate : 25.000 fps
Minimum frame rate : 12.500 fps
Maximum frame rate : 25.000 fps
Resolution : 24 bits
Colorimetry : 4:2:0
Scan type : Progressive
Bits/(Pixel*Frame) : 0.294
Stream size : 819 MiB (85%)
Encoded date : UTC 2009-08-24 13:27:27
Tagged date : UTC 2009-08-24 13:27:27

Audio
ID : 2
Format : AAC
Format/Info : Advanced Audio Codec
Format version : Version 4
Format profile : LC
Format settings, SBR : No
Codec ID : 40
Duration : 2h 28mn
Bit rate mode : Variable
Bit rate : 128 Kbps
Channel(s) : 2 channels
Channel positions : L R
Sampling rate : 44.1 KHz
Resolution : 16 bits
Stream size : 136 MiB (14%)
Encoded date : UTC 2009-08-24 13:27:27
Tagged date : UTC 2009-08-24 13:27:27

related torrents

Torrent name

health leech seeds Size
 

comments (0)

Main Menu