UK

Colditz Documentary of Colditz Castle (2002) [UN (Divx)]

  • Download 5x Faster
  • Download torrent
  • Direct Download
  • Rate this torrent +  |  -
Colditz Documentary of Colditz Castle (2002) [UN (Divx)]

Anonymous and Free Direct Download 300GB+


Torrent info

Name:Colditz Documentary of Colditz Castle (2002) [UN (Divx)]

Total Size: 144.42 MB

Magnet: Magnet Link

Seeds: 0

Leechers: 9

Stream: Watch Online @ Movie4u

Last Updated: 2010-10-03 03:08:38 (Update Now)

Torrent added: 2009-08-26 09:29:52



VPN For Torrents

Torrent Files List


Colditz.avi (Size: 144.42 MB) (Files: 1)

 Colditz.avi

144.42 MB
 

Announce URL: http://www.thebox.bz:2710/00000000000000000000000000000000/announce

Torrent description

This torrent was uploaded from www.TheBox.bz (signup is open and free) - the home of all British TV

2002 Color Documentary by Robert Garofalo on the legendary WW2 German supposedly inescapable Colditz Castle through the eyes of some survivors - the British "Bad Boys"

Introduced by Terence Alexander you'll probably recognize him...;-)

Notice the blooper in the final credits where it says in crisp White on Black - There are many stories from Colditz Caslte No spellcheckers in 2002 ???:w00t:

Enjoy, and if you like it search for Blitz on the Midlands for another Garofalo classic Documentary...

Very Watchable 2x in VGA

Complete name : Colditz.avi
Format : AVI
Format/Info : Audio Video Interleave
File size : 144 MiB
Duration : 1h 2mn
Overall bit rate : 324 Kbps

Video
Format : MPEG-4 Visual
Codec ID : DIV3
Codec ID/Hint : DivX 3 Low
Duration : 1h 2mn
Bit rate : 191 Kbps
Width : 320 pixels
Height : 240 pixels
Display aspect ratio : 4/3
Frame rate : 25.000 fps
Resolution : 24 bits
Bits/(Pixel*Frame) : 0.099
Stream size : 85.1 MiB (59%)
Title : Videostream

Audio
Format : MPEG Audio
Format version : Version 1
Format profile : Layer 3
Codec ID : 55
Codec ID/Hint : MP3
Duration : 1h 2mn
Bit rate mode : Constant
Bit rate : 128 Kbps
Channel(s) : 2 channels
Sampling rate : 48.0 KHz
Resolution : 16 bits
Stream size : 57.1 MiB (40%)
Alignment : Split accross interleaves
Interleave, duration : 1000 ms (25.01 video frames)
Title : Audiostream 1



===============================

Some of the other rather spiffing shows available now and always if you signup free @ www.TheBox.bz:

Comedy: The Office, Peep Show, Coupling, Chef, Fawlty Towers, Only Fools and Horses, The IT Crowd, Brass Eye, Nathan Barley, Young Ones, Monty Python, Blackadder, Alan Partridge, Father Ted, Coupling, Little Britain, Mr Bean, Extras, Green Wing, Mighty Boosh

Drama: Casualty, Holby City, The Bill, Hustle, Skins, Shameless, Ashes To Ashes

Entertainment: Faking It, Derren Brown, Scrapheap Challenge, Strictly Come Dancing, Wife Swap

Game/Quiz Shows: Whose Line Is It Anyway?, Have I Got News For You, Deal Or No Deal (UK), Q.I.

Education/Documentary: Planet Earth, Horizon, Panorama, Mark Thomas (Comedy) Product

Food: Hell's Kitchen, Jamie Oliver, The F Word, Kitchen Nightmares, Masterchef, Great British Menu, Gordon Ramsay's Cookalong

Home/Property/Garden: Property Ladder, How Clean Is Your House?, Changing Rooms, Grand Designs, Homes Under The Hammer, To Buy Or Not To Buy

Motoring: Top Gear, Fifth Gear

Music: Top Of The Pops, Jools Holland, Glastonbury

Reality: Big Brother, Celebrity Big Brother, I'm a Celebrity - Get Me Out of Here!, Any Dream Will Do, Grease, Pop Idol, Wife Swap, X Factor, Badger Or Bust, Apprentice UK, Dragons' Den, Britain's Got Talent

Sci-Fi: Doctor Who, Red Dwarf, Torchwood, Primeval

Sport: Football (Soccer), Cricket, Rugby, Snooker, Darts, Formula One (F1GP)

Soaps: Eastenders, Coronation Street, Emmerdale, Neighbours, Hollyoaks

Style/Fashion: What Not To Wear, Project Catwalk

Kids: Teletubbies, Blue Peter, Tikkabilla, Andy Pandy, Postman Pat, Shoebox Zoo, Brum, Bob The Builder, Young Dracula, Sarah Jane Adventures, Shaun The Sheep

related torrents

Torrent name

health leech seeds Size
 


comments (0)

Main Menu