UK

Classic Emmerdale Part II (11th July 2006)[TvRip (XVID)]

  • Download 5x Faster
  • Download torrent
  • Direct Download
  • Rate this torrent +  |  -
Classic Emmerdale Part II (11th July 2006)[TvRip (XVID)]

Anonymous and Free Direct Download 300GB+


Torrent info

Name:Classic Emmerdale Part II (11th July 2006)[TvRip (XVID)]

Total Size: 174.89 MB

Magnet: Magnet Link

Seeds: 5

Leechers: 0

Stream: Watch Online @ Movie4u

Last Updated: 2010-07-27 09:09:09 (Update Now)

Torrent added: 2009-08-26 09:28:11



VPN For Torrents

Torrent Files List


Classic Emmerdale 2006.07.11.TvRip.Xvid.(4407).Robinhood99.avi (Size: 174.89 MB) (Files: 1)

 Classic Emmerdale 2006.07.11.TvRip.Xvid.(4407).Robinhood99.avi

174.89 MB
 

Announce URL: http://www.thebox.bz:2710/00000000000000000000000000000000/announce

Torrent description

This torrent was uploaded from www.TheBox.bz (signup is open and free) - the home of all British TV



Classic Emmerdale   Part II (11th July 2006)[TvRip (XVID)] preview 0


==ORIGINAL UK AIR DATEs:==
11th July 2006
Episode(S) 4407

==Description==
---------------------------------------------------------------------------------------------


Episode 4407
http://www.itnsource.com/shotlist//ITVProgs/2006/07/11/Y052444064407C/?s=emmerdale+4407
At Butlers Jo asks Andy what he wants to do, Andy suggests that they see what's on TV but Jo suggests that they can do better than that and takes the control from Andy, she adds that she bets Andy expected a bit more fun when Katie moved back in. Andy claims that it isn't Katie's fault she's working that's all. Jo suggests that Katie and Jamie will be having a good laugh, she suggests that maybe Katie thinks Andy is a bit dull and that's why she wants to go out all of the time, Andy looks concerned and asks if Katie has said something. Jo claims that she hasn't but she knows how a girl's mind works, she leans in close and tells Andy that if Katie knew how much fun he was having without her then she wouldn't be so keen to go out, Andy is lost for words for a moment as he takes in what he thinks Jo is trying to say but then he gets up, tells Jo she is right and suggests that they go down the pub.


---------------------------------------------------------------------------------------------



Approx for each episode:

[SIZE=1]
Format : MPEG-4 Visual
Format profile : Streaming Video@L1
Format settings, BVOP : Yes
Format settings, QPel : No
Format settings, GMC : No warppoints
Format settings, Matrix : Default
Muxing mode : Packed bitstream
Codec ID : XVID
Codec ID/Hint : XviD
Duration : 22mn 2s
Bit rate : 965 Kbps
Width : 640 pixels
Height : 384 pixels
Display aspect ratio : 1.667
Frame rate : 25.000 fps
Resolution : 24 bits
Colorimetry : 4:2:0
Scan type : Progressive
Bits/(Pixel*Frame) : 0.157
Stream size : 152 MiB (87%)
Writing library : XviD 1.0.3 (UTC 2004-12-20)

Format : MPEG Audio
Format version : Version 1
Format profile : Layer 3
Codec ID : 55
Codec ID/Hint : MP3
Duration : 22mn 2s
Bit rate mode : Variable
Bit rate : 131 Kbps
Nominal bit rate : 128 Kbps
Channel(s) : 2 channels
Sampling rate : 48.0 KHz
Resolution : 16 bits
Stream size : 20.7 MiB (12%)
Alignment : Aligned on interleaves
Interleave, duration : 24 ms (0.60 video frame)
Interleave, preload duration : 490 ms
Writing library : LAME3.90.
Encoding settings : ABR






[/SIZE]

===============================

Some of the other rather spiffing shows available now and always if you signup free @ www.TheBox.bz:

Comedy: The Office, Peep Show, Coupling, Chef, Fawlty Towers, Only Fools and Horses, The IT Crowd, Brass Eye, Nathan Barley, Young Ones, Monty Python, Blackadder, Alan Partridge, Father Ted, Coupling, Little Britain, Mr Bean, Extras, Green Wing, Mighty Boosh

Drama: Casualty, Holby City, The Bill, Hustle, Skins, Shameless, Ashes To Ashes

Entertainment: Faking It, Derren Brown, Scrapheap Challenge, Strictly Come Dancing, Wife Swap

Game/Quiz Shows: Whose Line Is It Anyway?, Have I Got News For You, Deal Or No Deal (UK), Q.I.

Education/Documentary: Planet Earth, Horizon, Panorama, Mark Thomas (Comedy) Product

Food: Hell's Kitchen, Jamie Oliver, The F Word, Kitchen Nightmares, Masterchef, Great British Menu, Gordon Ramsay's Cookalong

Home/Property/Garden: Property Ladder, How Clean Is Your House?, Changing Rooms, Grand Designs, Homes Under The Hammer, To Buy Or Not To Buy

Motoring: Top Gear, Fifth Gear

Music: Top Of The Pops, Jools Holland, Glastonbury

Reality: Big Brother, Celebrity Big Brother, I'm a Celebrity - Get Me Out of Here!, Any Dream Will Do, Grease, Pop Idol, Wife Swap, X Factor, Badger Or Bust, Apprentice UK, Dragons' Den, Britain's Got Talent

Sci-Fi: Doctor Who, Red Dwarf, Torchwood, Primeval

Sport: Football (Soccer), Cricket, Rugby, Snooker, Darts, Formula One (F1GP)

Soaps: Eastenders, Coronation Street, Emmerdale, Neighbours, Hollyoaks

Style/Fashion: What Not To Wear, Project Catwalk

Kids: Teletubbies, Blue Peter, Tikkabilla, Andy Pandy, Postman Pat, Shoebox Zoo, Brum, Bob The Builder, Young Dracula, Sarah Jane Adventures, Shaun The Sheep

related torrents

Torrent name

health leech seeds Size
 


comments (0)

Main Menu