UK

Classic Emmerdale Part I (11th July 2006)[TvRip (XVID)]

  • Download 5x Faster
  • Download torrent
  • Direct Download
  • Rate this torrent +  |  -
Classic Emmerdale Part I (11th July 2006)[TvRip (XVID)]

Free and Direct Download with Usenet.nl 300GB+ free


Torrent info

Name:Classic Emmerdale Part I (11th July 2006)[TvRip (XVID)]

Total Size: 175.01 MB

Magnet: Magnet Link

Seeds: 5

Leechers: 0

Stream: Watch Online @ Movie4u

Last Updated: 2010-08-04 06:01:00 (Update Now)

Torrent added: 2009-08-26 09:28:09





Torrent Files List


Classic Emmerdale 2006.07.11.TvRip.Xvid.(4406).Robinhood99.avi (Size: 175.01 MB) (Files: 1)

 Classic Emmerdale 2006.07.11.TvRip.Xvid.(4406).Robinhood99.avi

175.01 MB
 

Announce URL: http://www.thebox.bz:2710/00000000000000000000000000000000/announce

Torrent description

This torrent was uploaded from www.TheBox.bz (signup is open and free) - the home of all British TV



Classic Emmerdale   Part I (11th July 2006)[TvRip (XVID)] preview 0


==ORIGINAL UK AIR DATEs:==
11th July 2006
Episode(S) 4406

==Description==
---------------------------------------------------------------------------------------------
Episode 4406
http://www.itnsource.com/shotlist//ITVProgs/2006/07/11/Y052444064407C/?s=emmerdale+4406
At the B&B the phone rings. Adam smiles at a struggling Steph as he answers it and tells the caller that Steph isn't taking bookings at the moment, he pauses and looks Steph in the eye as he tells the caller that there has been a bereavement in the family, he ends the call as Steph remains hopeless.
At Keepers, Turner has just finished another call, he marks something in a notebook as Betty asks him if he has had any joy, he tells her not really and returns the question as he approaches her sat at the computer. Betty tells him that it's as though Adam appeared there with no past at all, Turner comments that he is a bit worried that they haven't heard anything from Steph. Betty asks him if he thinks she should call and he tells her that Adam will be home and they don't want to do anything to raise his suspicions. Betty agrees and tells him to get back to her list as she gets back to the internet, Turner gets half way to the chair when a thought strikes him and he suggests that he should look closer to home remembering that he saw Adam talking to Pollard. Betty thinks it's a good idea but points out that Pollard is another one who is good at covering his tracks. Turner agrees but reckons it is worth a try.




---------------------------------------------------------------------------------------------



Approx for each episode:

[SIZE=1]
Format : MPEG-4 Visual
Format profile : Streaming [email protected]
Format settings, BVOP : Yes
Format settings, QPel : No
Format settings, GMC : No warppoints
Format settings, Matrix : Default
Muxing mode : Packed bitstream
Codec ID : XVID
Codec ID/Hint : XviD
Duration : 22mn 10s
Bit rate : 957 Kbps
Width : 640 pixels
Height : 384 pixels
Display aspect ratio : 1.667
Frame rate : 25.000 fps
Resolution : 24 bits
Colorimetry : 4:2:0
Scan type : Progressive
Bits/(Pixel*Frame) : 0.156
Stream size : 152 MiB (87%)
Writing library : XviD 1.0.3 (UTC 2004-12-20)

Format : MPEG Audio
Format version : Version 1
Format profile : Layer 3
Codec ID : 55
Codec ID/Hint : MP3
Duration : 22mn 10s
Bit rate mode : Variable
Bit rate : 133 Kbps
Nominal bit rate : 128 Kbps
Channel(s) : 2 channels
Sampling rate : 48.0 KHz
Resolution : 16 bits
Stream size : 21.1 MiB (12%)
Alignment : Aligned on interleaves
Interleave, duration : 24 ms (0.60 video frame)
Interleave, preload duration : 490 ms
Writing library : LAME3.90.
Encoding settings : ABR





[/SIZE]


===============================

Some of the other rather spiffing shows available now and always if you signup free @ www.TheBox.bz:

Comedy: The Office, Peep Show, Coupling, Chef, Fawlty Towers, Only Fools and Horses, The IT Crowd, Brass Eye, Nathan Barley, Young Ones, Monty Python, Blackadder, Alan Partridge, Father Ted, Coupling, Little Britain, Mr Bean, Extras, Green Wing, Mighty Boosh

Drama: Casualty, Holby City, The Bill, Hustle, Skins, Shameless, Ashes To Ashes

Entertainment: Faking It, Derren Brown, Scrapheap Challenge, Strictly Come Dancing, Wife Swap

Game/Quiz Shows: Whose Line Is It Anyway?, Have I Got News For You, Deal Or No Deal (UK), Q.I.

Education/Documentary: Planet Earth, Horizon, Panorama, Mark Thomas (Comedy) Product

Food: Hell's Kitchen, Jamie Oliver, The F Word, Kitchen Nightmares, Masterchef, Great British Menu, Gordon Ramsay's Cookalong

Home/Property/Garden: Property Ladder, How Clean Is Your House?, Changing Rooms, Grand Designs, Homes Under The Hammer, To Buy Or Not To Buy

Motoring: Top Gear, Fifth Gear

Music: Top Of The Pops, Jools Holland, Glastonbury

Reality: Big Brother, Celebrity Big Brother, I'm a Celebrity - Get Me Out of Here!, Any Dream Will Do, Grease, Pop Idol, Wife Swap, X Factor, Badger Or Bust, Apprentice UK, Dragons' Den, Britain's Got Talent

Sci-Fi: Doctor Who, Red Dwarf, Torchwood, Primeval

Sport: Football (Soccer), Cricket, Rugby, Snooker, Darts, Formula One (F1GP)

Soaps: Eastenders, Coronation Street, Emmerdale, Neighbours, Hollyoaks

Style/Fashion: What Not To Wear, Project Catwalk

Kids: Teletubbies, Blue Peter, Tikkabilla, Andy Pandy, Postman Pat, Shoebox Zoo, Brum, Bob The Builder, Young Dracula, Sarah Jane Adventures, Shaun The Sheep

related torrents

Torrent name

health leech seeds Size
 

comments (0)

Main Menu