UK

Classic Emmerdale (31st August 1995)[VHSRip (XVID)]

  • Download 5x Faster
  • Download torrent
  • Direct Download
  • Rate this torrent +  |  -
Classic Emmerdale (31st August 1995)[VHSRip (XVID)]

Free and Direct Download with Usenet.nl 300GB+ free


Torrent info

Name:Classic Emmerdale (31st August 1995)[VHSRip (XVID)]

Total Size: 194.38 MB

Magnet: Magnet Link

Seeds: 0

Leechers: 0

Stream: Watch Online @ Movie4u

Last Updated: 2016-02-04 08:15:27 (Update Now)

Torrent added: 2009-08-26 09:27:57





Torrent Files List


Classic Emmerdale 1995.08.31.VHSRip.Xvid.(2005).Robinhood99.avi (Size: 194.38 MB) (Files: 1)

 Classic Emmerdale 1995.08.31.VHSRip.Xvid.(2005).Robinhood99.avi

194.38 MB
 

tracker

leech seeds
 

Torrent description

This torrent was uploaded from www.TheBox.bz (signup is open and free) - the home of all British TV



Classic Emmerdale (31st August 1995)[VHSRip (XVID)] preview 0


==ORIGINAL UK AIR DATEs:==
31st August 1995
Episode 2005

==Description==
---------------------------------------------------------------------------------------------
[url]http://www.itnsource.com/shotlist//ITVProgs/1995/08/31/Y05242005/?s=emmerdale+2005[/url]

PART 1 - everyone is waiting outside the Woolpack for the bus to arrive to take them to France ; Eric diplomatically offers Terry a ticket ; Terry tears it up ; there are various grumblings as the bus appears - people did not expect a double decker, but Frank assures them that the engine is in tip top condition ; Seth complains about the lack of facilities ; as Betty tells Frank " there's no flaming lavvy " ; Vic is sulking because Viv is going on the trip instead of him ; she is taking Scott & Kelly ; Donna prefers to stay at home with her dad ; Viv teases Kelly when she sees that Roy is on the bus ; Rachel makes sure that Chris has a work free trip by taking his mobile phone from him ; Alan tries to persuade Terry to go & see Britt in York, but he refuses ; Kim has decided to miss the French trip so that she can stay behind & see Dave ; the Dingles arrive en masse ; Zak has brought his own shopping trolley for the duty frees, but it soon gets put back in the van when a policeman arrives ; he is looking for FranTate ; everyone looks on in amazement as Frank is arrested for assaulting Ken Adlington ; Chris panics as Frank is driven off in a police car ; he does not want to stay on the bus, but has no choice as the trip gets underway ; he takes it out on Eric Pollard ; Jan & Ned speculate as to why Britt & Terry have split up ; Ned thinks that Britt was probably having an affair ; Kelly & Roy look at each others passport photographs ; Scott feels left out ; Tina fills Kathy & Dolores in on the latest gossip - Frank Tate's
arrest ; Betty is completeley humiliated as Nellie Dingle
finds out that she needs a toilet stop & encourages the
whole bus to sing " stop the bus, she wants a wee wee " ;
Eric asks Des to pull over before there is a riot ; Tina
calls into the Woolpack & tries to tease Terry, but he
isn't in the mood ; Kelly & Roy are left behind at the
toilet stop ; Kathy calls round & surprises Dave ; he is
even more surprised when Kim turns up as well ; she
pretends that she has called round to inform Dave of
Frank's arrest ; she is clearly annoyed at Kathy's presence & the feeling is mutual ; the bus trip is going from bad to
worse ; Des seems to be lost & then the engine cuts out ;
Eric asks if anyone has got a mobile phone.
PART 2 - Des does not seem to be having much luck fixing
the bus ; everyone is getting restless ; Viv notices that
Kelly & Roy are missing & starts to panic ; meanwhile Kelly
& Roy are hitchiking ; Chris decides to set off & find a
telephone ; Linda runs after him & makes him realise that
he is being foolish ; Tina is not pleased to be spending
the night in the pub with Kathy " she's a right boring cow
" ; Viv is worrying about Kelly ; Ned & Des set off to get
help ; Zak interrogates Chris about insurance policies that
pay out when you're unemployed ; he is not pleased to find
out that you have to have been employed in the first place
; Kelly & Roy have made it on to the ferry, but find out
that the Emmerdale bus did not board ; Kim is fuming after
spending time at the police station ; Frank challenges her
about loyalty ; Alan offers Terry a bed for the night so
that he is not lonely ; Terry refuses ; he is missing
Britt, but thinks that there marriage is over ; the bus
trippers find themselves stuck in the middle of nowhere for the night.
KEY LOCAL EVENT (BUS TRIP)
----------------------------------------------------------------------------------------------



[SIZE=1]

Format : MPEG-4 Visual
Format profile : Streaming [email protected]
Format settings, BVOP : Yes
Format settings, QPel : No
Format settings, GMC : No warppoints
Format settings, Matrix : Default
Muxing mode : Packed bitstream
Codec ID : XVID
Codec ID/Hint : XviD
Duration : 24mn 18s
Bit rate : 970 Kbps
Width : 640 pixels
Height : 480 pixels
Display aspect ratio : 4/3
Frame rate : 25.000 fps
Resolution : 24 bits
Colorimetry : 4:2:0
Scan type : Progressive
Bits/(Pixel*Frame) : 0.126
Stream size : 169 MiB (87%)
Writing library : XviD 1.0.3 (UTC 2004-12-20)

Format : MPEG Audio
Format version : Version 1
Format profile : Layer 3
Codec ID : 55
Codec ID/Hint : MP3
Duration : 24mn 18s
Bit rate mode : Variable
Bit rate : 135 Kbps
Nominal bit rate : 128 Kbps
Channel(s) : 2 channels
Sampling rate : 48.0 KHz
Resolution : 16 bits
Stream size : 23.4 MiB (12%)
Alignment : Aligned on interleaves
Interleave, duration : 24 ms (0.60 video frame)
Interleave, preload duration : 213 ms
Writing library : LAME3.90.
Encoding settings : ABR





[/SIZE]







===============================

Some of the other rather spiffing shows available now and always if you signup free @ www.TheBox.bz:

Comedy: The Office, Peep Show, Coupling, Chef, Fawlty Towers, Only Fools and Horses, The IT Crowd, Brass Eye, Nathan Barley, Young Ones, Monty Python, Blackadder, Alan Partridge, Father Ted, Coupling, Little Britain, Mr Bean, Extras, Green Wing, Mighty Boosh

Drama: Casualty, Holby City, The Bill, Hustle, Skins, Shameless, Ashes To Ashes

Entertainment: Faking It, Derren Brown, Scrapheap Challenge, Strictly Come Dancing, Wife Swap

Game/Quiz Shows: Whose Line Is It Anyway?, Have I Got News For You, Deal Or No Deal (UK), Q.I.

Education/Documentary: Planet Earth, Horizon, Panorama, Mark Thomas (Comedy) Product

Food: Hell's Kitchen, Jamie Oliver, The F Word, Kitchen Nightmares, Masterchef, Great British Menu, Gordon Ramsay's Cookalong

Home/Property/Garden: Property Ladder, How Clean Is Your House?, Changing Rooms, Grand Designs, Homes Under The Hammer, To Buy Or Not To Buy

Motoring: Top Gear, Fifth Gear

Music: Top Of The Pops, Jools Holland, Glastonbury

Reality: Big Brother, Celebrity Big Brother, I'm a Celebrity - Get Me Out of Here!, Any Dream Will Do, Grease, Pop Idol, Wife Swap, X Factor, Badger Or Bust, Apprentice UK, Dragons' Den, Britain's Got Talent

Sci-Fi: Doctor Who, Red Dwarf, Torchwood, Primeval

Sport: Football (Soccer), Cricket, Rugby, Snooker, Darts, Formula One (F1GP)

Soaps: Eastenders, Coronation Street, Emmerdale, Neighbours, Hollyoaks

Style/Fashion: What Not To Wear, Project Catwalk

Kids: Teletubbies, Blue Peter, Tikkabilla, Andy Pandy, Postman Pat, Shoebox Zoo, Brum, Bob The Builder, Young Dracula, Sarah Jane Adventures, Shaun The Sheep

related torrents

Torrent name

health leech seeds Size
 

comments (0)

Main Menu