UK

Classic Emmerdale (2nd June 2006)[TvRip (XVID)]

  • Download 5x Faster
  • Download torrent
  • Direct Download
  • Rate this torrent +  |  -
Classic Emmerdale (2nd June 2006)[TvRip (XVID)]

Free and Direct Download with Usenet 300GB+ free


Torrent info

Name:Classic Emmerdale (2nd June 2006)[TvRip (XVID)]

Total Size: 174.86 MB

Magnet: Magnet Link

Seeds: 4

Leechers: 0

Stream: Watch Online @ Movie4u

Last Updated: 2010-07-19 03:03:40 (Update Now)

Torrent added: 2009-08-26 09:27:56




Torrent Files List


Classic Emmerdale 2006.06.02.TvRip.Xvid.(4378).Robinhood99.avi (Size: 174.86 MB) (Files: 1)

 Classic Emmerdale 2006.06.02.TvRip.Xvid.(4378).Robinhood99.avi

174.86 MB
 

Announce URL: http://www.thebox.bz:2710/00000000000000000000000000000000/announce

Torrent description

This torrent was uploaded from www.TheBox.bz (signup is open and free) - the home of all British TV



Classic Emmerdale (2nd June 2006)[TvRip (XVID)] preview 0


==ORIGINAL UK AIR DATEs:==
2nd june 2006
Episode 4378

==Description==
---------------------------------------------------------------------------------------------
[url]http://www.itnsource.com/shotlist//ITVProgs/2006/06/02/Y05244378A/?s=emmerdale+4378[/url]

Pearl is on her phone outside Jacobs Fold she collects the post from the postman. She is arranging a pick up for the flowers. Len comes out and takes the post off her, she tells him that she has finished the flowers, he asks what time she came to bed and she tells him that she didn't. Pearl tries to blame it on Len's snoring and he tells her that she is to put her feet up as she is now a lady of leisure. Pearl tells Len that she isn't a lady of leisure out of choice and Len reminds her that she is better off without it and that no-one in their right mind would want to work for Pollard, he ushers her into the house.
Daz is throwing a bag of rubbish out at Annie's, Diane shouts that she hopes he has tied the ends together and explains to Daz that they don't want rats, she takes it off him and knots the bag. He tells her that he never thought and Diane tells him that he never does, Daz storms off leaving Diane, possibly guilty for having gone too far.
At Butlers Jack and Andy are discussing why Victoria phoned Denise, Andy says she must have thought she was doing the right thing. Andy tells Jack that Daz has been bunking off school for a couple of weeks, that he had a phone call that morning from the welfare officer. Jack tells Andy that he thought he was doing ok, and Andy tells him that he was until he moved out. Jack corrects him by telling him he means when Katie moved in. Andy tells Jack that there is nothing that he can do, reminding him that he saw the way Daz was the day before and tells Jack that the school are planning on holding Daz back a year. Jack laments that this is all they need and that Diane won't be happy.
In the Woolpack back room Louise and Diane are talking about Daz, Diane tells Louise that she isn't cut out for the motherhood business and Louise reminds her of Bernice. Diane tells her she only got through that with a wing and a prayer, and the odd bottle of gin and that now she's stuck with another two of them. Marlon enters tentatively and tells them he is just nipping over to the café, Diane tells him that while he is over there he should have a word with his wife about the night café. Marlon tells her she knows what Donna is like with a bee in her bonnet and Diane tells him he knows what it's like when she has one in hers.

---------------------------------------------------------------------------------------------



[SIZE=1]

Format : MPEG-4 Visual
Format profile : Streaming [email protected]
Format settings, BVOP : Yes
Format settings, QPel : No
Format settings, GMC : No warppoints
Format settings, Matrix : Default
Muxing mode : Packed bitstream
Codec ID : XVID
Codec ID/Hint : XviD
Duration : 21mn 58s
Bit rate : 967 Kbps
Width : 640 pixels
Height : 384 pixels
Display aspect ratio : 1.667
Frame rate : 25.000 fps
Resolution : 24 bits
Colorimetry : 4:2:0
Scan type : Progressive
Bits/(Pixel*Frame) : 0.157
Stream size : 152 MiB (87%)
Writing library : XviD 1.0.3 (UTC 2004-12-20)

Format : MPEG Audio
Format version : Version 1
Format profile : Layer 3
Codec ID : 55
Codec ID/Hint : MP3
Duration : 21mn 58s
Bit rate mode : Variable
Bit rate : 133 Kbps
Nominal bit rate : 128 Kbps
Channel(s) : 2 channels
Sampling rate : 48.0 KHz
Resolution : 16 bits
Stream size : 20.8 MiB (12%)
Alignment : Aligned on interleaves
Interleave, duration : 24 ms (0.60 video frame)
Interleave, preload duration : 498 ms
Writing library : LAME3.90.
Encoding settings : ABR





[/SIZE]


===============================

Some of the other rather spiffing shows available now and always if you signup free @ www.TheBox.bz:

Comedy: The Office, Peep Show, Coupling, Chef, Fawlty Towers, Only Fools and Horses, The IT Crowd, Brass Eye, Nathan Barley, Young Ones, Monty Python, Blackadder, Alan Partridge, Father Ted, Coupling, Little Britain, Mr Bean, Extras, Green Wing, Mighty Boosh

Drama: Casualty, Holby City, The Bill, Hustle, Skins, Shameless, Ashes To Ashes

Entertainment: Faking It, Derren Brown, Scrapheap Challenge, Strictly Come Dancing, Wife Swap

Game/Quiz Shows: Whose Line Is It Anyway?, Have I Got News For You, Deal Or No Deal (UK), Q.I.

Education/Documentary: Planet Earth, Horizon, Panorama, Mark Thomas (Comedy) Product

Food: Hell's Kitchen, Jamie Oliver, The F Word, Kitchen Nightmares, Masterchef, Great British Menu, Gordon Ramsay's Cookalong

Home/Property/Garden: Property Ladder, How Clean Is Your House?, Changing Rooms, Grand Designs, Homes Under The Hammer, To Buy Or Not To Buy

Motoring: Top Gear, Fifth Gear

Music: Top Of The Pops, Jools Holland, Glastonbury

Reality: Big Brother, Celebrity Big Brother, I'm a Celebrity - Get Me Out of Here!, Any Dream Will Do, Grease, Pop Idol, Wife Swap, X Factor, Badger Or Bust, Apprentice UK, Dragons' Den, Britain's Got Talent

Sci-Fi: Doctor Who, Red Dwarf, Torchwood, Primeval

Sport: Football (Soccer), Cricket, Rugby, Snooker, Darts, Formula One (F1GP)

Soaps: Eastenders, Coronation Street, Emmerdale, Neighbours, Hollyoaks

Style/Fashion: What Not To Wear, Project Catwalk

Kids: Teletubbies, Blue Peter, Tikkabilla, Andy Pandy, Postman Pat, Shoebox Zoo, Brum, Bob The Builder, Young Dracula, Sarah Jane Adventures, Shaun The Sheep

related torrents

Torrent name

health leech seeds Size
 

comments (0)

Main Menu