UK

Classic Emmerdale (29th June 2006)[TvRip (XVID)]

  • Download 5x Faster
  • Download torrent
  • Direct Download
  • Rate this torrent +  |  -
Classic Emmerdale (29th June 2006)[TvRip (XVID)]

Free and Direct Download with Usenet.nl 300GB+ free


Torrent info

Name:Classic Emmerdale (29th June 2006)[TvRip (XVID)]

Total Size: 174.60 MB

Magnet: Magnet Link

Seeds: 0

Leechers: 0

Stream: Watch Online @ Movie4u

Last Updated: 2016-02-01 15:36:03 (Update Now)

Torrent added: 2009-08-26 09:27:56





Torrent Files List


Classic Emmerdale 2006.06.29.TvRip.Xvid.(4399).Robinhood99.avi (Size: 174.60 MB) (Files: 1)

 Classic Emmerdale 2006.06.29.TvRip.Xvid.(4399).Robinhood99.avi

174.60 MB
 

tracker

leech seeds
 

Torrent description

This torrent was uploaded from www.TheBox.bz (signup is open and free) - the home of all British TV



Classic Emmerdale (29th June 2006)[TvRip (XVID)] preview 0


==ORIGINAL UK AIR DATEs:==
29th June 2006
Episode(S) 4399

==Description==
---------------------------------------------------------------------------------------------
[url]http://www.itnsource.com/shotlist//ITVProgs/2006/06/29/Y05244399A/?s=emmerdale+4399[/url]

Inside the Hopes flat Viv runs up to Bob to tell him that she has replied and Bob says 'what!' Viv tells Bob that she checked first thing and there was no word so she was really disappointed but she checked again and the woman has replied. Bob asks Viv if she is talking about the surrogate and Viv tells him of course she is. Bob tells Viv that she is a bit eager but Viv tells him that if she had a customer in the shop she wouldn't tell them to wait a minute. Bob says that she does sometimes but Viv tells him that it is the same and that they are her customers and she doesn't want to keep them waiting. Bob asks Viv what the woman has said but Viv tells him that she doesn't know because she wants to read it with him, so she tells Bob to get some clothes on and to come downstairs. Bob tells Viv that she is right and she tells him to hurry up.
Outside the Kings Development site Carl is talking on the phone saying that all of the proceeds go to charity. Carl asks Tom how Jimmy is doing and Tom tells him that he is a bit shaken up but he will be ok if today goes well. He asks Carl who he was talking to, Carl tells Tom that it was the Courier and that Jimmy had spoken to him but never followed it through and he had forgotten all about it. Tom asks Carl if he has rectified it and Carl tells him that they will be there. Tom asks Carl why the proceeds go to charity as Jimmy wanted them to be a profit for the business. Carl tells Tom that it was never going to happen as they have only sold a few tickets so they money goes to charity and they get a bit more decent PR. Tom says that he can see that Carl is on top of it all. Carl tells him that he is doing his best and that he is going to call the local radio station next. Tom tells him to keep it up while he goes home to check on Jimmy to make sure he is keeping his feet up.

---------------------------------------------------------------------------------------------




[SIZE=1]
Format : MPEG-4 Visual
Format profile : Streaming [email protected]
Format settings, BVOP : Yes
Format settings, QPel : No
Format settings, GMC : No warppoints
Format settings, Matrix : Default
Muxing mode : Packed bitstream
Codec ID : XVID
Codec ID/Hint : XviD
Duration : 22mn 3s
Bit rate : 960 Kbps
Width : 640 pixels
Height : 384 pixels
Display aspect ratio : 1.667
Frame rate : 25.000 fps
Resolution : 24 bits
Colorimetry : 4:2:0
Scan type : Progressive
Bits/(Pixel*Frame) : 0.156
Stream size : 152 MiB (87%)
Writing library : XviD 1.0.3 (UTC 2004-12-20)


Format : MPEG Audio
Format version : Version 1
Format profile : Layer 3
Codec ID : 55
Codec ID/Hint : MP3
Duration : 22mn 3s
Bit rate mode : Variable
Bit rate : 133 Kbps
Nominal bit rate : 128 Kbps
Channel(s) : 2 channels
Sampling rate : 48.0 KHz
Resolution : 16 bits
Stream size : 21.0 MiB (12%)
Alignment : Aligned on interleaves
Interleave, duration : 24 ms (0.60 video frame)
Interleave, preload duration : 491 ms
Writing library : LAME3.90.
Encoding settings : ABR




[/SIZE]



===============================

Some of the other rather spiffing shows available now and always if you signup free @ www.TheBox.bz:

Comedy: The Office, Peep Show, Coupling, Chef, Fawlty Towers, Only Fools and Horses, The IT Crowd, Brass Eye, Nathan Barley, Young Ones, Monty Python, Blackadder, Alan Partridge, Father Ted, Coupling, Little Britain, Mr Bean, Extras, Green Wing, Mighty Boosh

Drama: Casualty, Holby City, The Bill, Hustle, Skins, Shameless, Ashes To Ashes

Entertainment: Faking It, Derren Brown, Scrapheap Challenge, Strictly Come Dancing, Wife Swap

Game/Quiz Shows: Whose Line Is It Anyway?, Have I Got News For You, Deal Or No Deal (UK), Q.I.

Education/Documentary: Planet Earth, Horizon, Panorama, Mark Thomas (Comedy) Product

Food: Hell's Kitchen, Jamie Oliver, The F Word, Kitchen Nightmares, Masterchef, Great British Menu, Gordon Ramsay's Cookalong

Home/Property/Garden: Property Ladder, How Clean Is Your House?, Changing Rooms, Grand Designs, Homes Under The Hammer, To Buy Or Not To Buy

Motoring: Top Gear, Fifth Gear

Music: Top Of The Pops, Jools Holland, Glastonbury

Reality: Big Brother, Celebrity Big Brother, I'm a Celebrity - Get Me Out of Here!, Any Dream Will Do, Grease, Pop Idol, Wife Swap, X Factor, Badger Or Bust, Apprentice UK, Dragons' Den, Britain's Got Talent

Sci-Fi: Doctor Who, Red Dwarf, Torchwood, Primeval

Sport: Football (Soccer), Cricket, Rugby, Snooker, Darts, Formula One (F1GP)

Soaps: Eastenders, Coronation Street, Emmerdale, Neighbours, Hollyoaks

Style/Fashion: What Not To Wear, Project Catwalk

Kids: Teletubbies, Blue Peter, Tikkabilla, Andy Pandy, Postman Pat, Shoebox Zoo, Brum, Bob The Builder, Young Dracula, Sarah Jane Adventures, Shaun The Sheep

related torrents

Torrent name

health leech seeds Size
 

comments (0)

Main Menu