UK

Classic Emmerdale (29th August 1995)[VHSRip (XVID)]

  • Download 5x Faster
  • Download torrent
  • Direct Download
  • Rate this torrent +  |  -

Torrent info

Name:Classic Emmerdale (29th August 1995)[VHSRip (XVID)]

Total Size: 194.40 MB

Magnet: Magnet Link

Seeds: 5

Leechers: 0

Stream: Watch Full Movie @ Movie4u

Last Updated: 2009-11-24 11:31:13 (Update Now)

Torrent added: 2009-08-26 09:27:55



VPN For Torrents

Torrent Files List


Classic Emmerdale 1995.08.29.VHSRip.Xvid.(2004).Robinhood99.avi (Size: 194.40 MB) (Files: 1)

 Classic Emmerdale 1995.08.29.VHSRip.Xvid.(2004).Robinhood99.avi

194.40 MB
 

Announce URL: http://www.thebox.bz:2710/00000000000000000000000000000000/announce

Torrent description

This torrent was uploaded from www.TheBox.bz (signup is open and free) - the home of all British TV



Classic Emmerdale (29th  August 1995)[VHSRip (XVID)] preview 0


==ORIGINAL UK AIR DATEs:==
29th August 1995
Episode 2004

==Description==
---------------------------------------------------------------------------------------------
[url]http://www.itnsource.com/shotlist//ITVProgs/1995/08/29/Y05242004/?s=emmerdale+2004[/url]

PART 1 - Britt & Terry are packing up ready for their move ; Biff & Dave want to cheer Nick up ; they try & persuade him to go to Britt & Terry's leaving do ; he reminds them that he met Paula at their opening night & does not want to bump into her again ; Frank & Des are busy working on the bus so that it will be ready for the trip to France ; Frank is worried about what Eric Pollard might be planning on the trip, but Des says that he is used to dealing with the likes of Pollard ; meanwhile Eric finds out that Sam & Butch cleared out no.40, Skipdale Road instead of no.14 ; he is appalled to realise that the village hall is now full of stolen property ; Emma is worried for Zoe as she sets out on her first day back at work ; Viv insists that she is going to France instead of Vic ; this upsets Vic's plans ; Betty offers her services to Alan in the Woolpack as he is short of staff since Jan handed in her notice ; Butch & Sam put the stolen furniture back ; Emma finds Zoe in tears on the sofa ; she could not face going back to work.
PART 2 - Emma is sympathetic to Zoe ; she encourages her to take some time off, but Zoe is worried about losing her business ; she does not want Ken Adlington to get away with what he has done, but she is sure that he will ; Alan finally congratulates Britt & Terry on their move ; Terry does not look very happy at the thought of leaving Alan & the Woolpack ; Eric has a 'board' meeting with Vic & Terry ; he gives them their share of the profits (10 pounds) ;
when they complain, he tells them that " as I now have sole
responsibility for the trip, I shall now take sole
responsibility for the profits " ; he also tries to take
advantage of Butch & Sam when they ask for their wages, but
is scared off by Butch's fist ; Ned & Jan talk about her
job at the Woolpack ; she admits that she did like it, but
she is too proud to go crawling to Alan Turner ; Terry &
Britt's leaving party is in full swing ; Britt invites Viv
& Vic to come & stay in York ; she is really looking
forward to moving ; Zak forces Butch to spend his first
legal wage on drinks for the family ; Nellie is getting quite drunk ; Jan apologises to Alan & he offers her the
job back ; Eric & Barbara arrive at the pub & find her
ex-husband already there ; Zoe is uncomfortable when she
sees WPC Metcalfe as she thinks that she might have told
Eric about the attack ; DS Metcalfe threatens Eric ; Terry
finally tells Britt that he does not want to leave
Emmerdale ; he begs her to stay with him & stop running
away ; Kim is dancing with Dave, but Frank doesn't seem to
mind ; Nellie grabs hold of Eric for a dance ; she tells
him that he is a lovely mover ; Zak looks jealously on ;
Terry tries to stop Britt from leaving ; he still loves her
; they are having a fierce argument outside the pub when
someone spots them & thinks that they are trying to sneak
off ; the whole of the pub comes out to say goodbye, but
are all left speechless when Britt roars off in the taxi
leaving Terry behind.
----------------------------------------------------------------------------------------------



[SIZE=1]

Format : MPEG-4 Visual
Format profile : Streaming [email protected]
Format settings, BVOP : Yes
Format settings, QPel : No
Format settings, GMC : No warppoints
Format settings, Matrix : Default
Muxing mode : Packed bitstream
Codec ID : XVID
Codec ID/Hint : XviD
Duration : 24mn 37s
Bit rate : 955 Kbps
Width : 640 pixels
Height : 480 pixels
Display aspect ratio : 4/3
Frame rate : 25.000 fps
Resolution : 24 bits
Colorimetry : 4:2:0
Scan type : Progressive
Bits/(Pixel*Frame) : 0.124
Stream size : 168 MiB (87%)
Writing library : XviD 1.0.3 (UTC 2004-12-20)

Format : MPEG Audio
Format version : Version 1
Format profile : Layer 3
Codec ID : 55
Codec ID/Hint : MP3
Duration : 24mn 37s
Bit rate mode : Variable
Bit rate : 135 Kbps
Nominal bit rate : 128 Kbps
Channel(s) : 2 channels
Sampling rate : 48.0 KHz
Resolution : 16 bits
Stream size : 23.9 MiB (12%)
Alignment : Aligned on interleaves
Interleave, duration : 24 ms (0.60 video frame)
Interleave, preload duration : 136 ms
Writing library : LAME3.90.
Encoding settings : ABR





[/SIZE]







===============================

Some of the other rather spiffing shows available now and always if you signup free @ www.TheBox.bz:

Comedy: The Office, Peep Show, Coupling, Chef, Fawlty Towers, Only Fools and Horses, The IT Crowd, Brass Eye, Nathan Barley, Young Ones, Monty Python, Blackadder, Alan Partridge, Father Ted, Coupling, Little Britain, Mr Bean, Extras, Green Wing, Mighty Boosh

Drama: Casualty, Holby City, The Bill, Hustle, Skins, Shameless, Ashes To Ashes

Entertainment: Faking It, Derren Brown, Scrapheap Challenge, Strictly Come Dancing, Wife Swap

Game/Quiz Shows: Whose Line Is It Anyway?, Have I Got News For You, Deal Or No Deal (UK), Q.I.

Education/Documentary: Planet Earth, Horizon, Panorama, Mark Thomas (Comedy) Product

Food: Hell's Kitchen, Jamie Oliver, The F Word, Kitchen Nightmares, Masterchef, Great British Menu, Gordon Ramsay's Cookalong

Home/Property/Garden: Property Ladder, How Clean Is Your House?, Changing Rooms, Grand Designs, Homes Under The Hammer, To Buy Or Not To Buy

Motoring: Top Gear, Fifth Gear

Music: Top Of The Pops, Jools Holland, Glastonbury

Reality: Big Brother, Celebrity Big Brother, I'm a Celebrity - Get Me Out of Here!, Any Dream Will Do, Grease, Pop Idol, Wife Swap, X Factor, Badger Or Bust, Apprentice UK, Dragons' Den, Britain's Got Talent

Sci-Fi: Doctor Who, Red Dwarf, Torchwood, Primeval

Sport: Football (Soccer), Cricket, Rugby, Snooker, Darts, Formula One (F1GP)

Soaps: Eastenders, Coronation Street, Emmerdale, Neighbours, Hollyoaks

Style/Fashion: What Not To Wear, Project Catwalk

Kids: Teletubbies, Blue Peter, Tikkabilla, Andy Pandy, Postman Pat, Shoebox Zoo, Brum, Bob The Builder, Young Dracula, Sarah Jane Adventures, Shaun The Sheep

related torrents

Torrent name

health leech seeds Size
 


comments (0)

Main Menu

 

script data-cfasync="false" src="//d2ghscazvn398x.cloudfront.net/?cshgd=690275">