UK

Classic Emmerdale (28th June 2006)[TvRip (XVID)]

  • Download 5x Faster
  • Download torrent
  • Direct Download
  • Rate this torrent +  |  -
Classic Emmerdale (28th June 2006)[TvRip (XVID)]

Anonymous and Free Direct Download 300GB+


Torrent info

Name:Classic Emmerdale (28th June 2006)[TvRip (XVID)]

Total Size: 174.98 MB

Magnet: Magnet Link

Seeds: 0

Leechers: 0

Stream: Watch Online @ Movie4u

Last Updated: 2015-04-14 10:43:58 (Update Now)

Torrent added: 2009-08-26 09:27:54



VPN For Torrents

Torrent Files List


Classic Emmerdale 2006.06.28.TvRip.Xvid.(4398).Robinhood99.avi (Size: 174.98 MB) (Files: 1)

 Classic Emmerdale 2006.06.28.TvRip.Xvid.(4398).Robinhood99.avi

174.98 MB
 

tracker

leech seeds
 

Torrent description

This torrent was uploaded from www.TheBox.bz (signup is open and free) - the home of all British TV



Classic Emmerdale (28th June 2006)[TvRip (XVID)] preview 0


==ORIGINAL UK AIR DATEs:==
28th June 2006
Episode(S) 4398

==Description==
---------------------------------------------------------------------------------------------
[url]http://www.itnsource.com/shotlist//ITVProgs/2006/06/28/Y05244398A/?s=emmerdale+4398[/url]

he raffle can go ahead as planned. Carl asks him if he thinks it is just superficial. Jimmy tells Carl that he got an engineer to look at it and tells Carl that he can ring him if he doesn't believe him. Tom tells them that they got off lightly and that they should just leave it at that. Jimmy tells Tom that he got off lightly because it is his problem apart from giving Jack a visit some time soon. Tom tells Jimmy to stay away from Jack. Tom tells Jimmy that it is his attitude that sets people off in the village and he reminds Jimmy that they are trying to build bridges not carry on feuds. Jimmy says good luck to Tom and tells him to leave him out of it.
Inside Annie's Cottage Jack asks Diane if they are talking to each other as they haven't spoken since they got up. Diane asks Jack what he wants to talk about, he asks her if she believes that he sabotaged the show homes and she tells him that she really doesn't know. Diane tells Jack that when he gets up on his high horse he tends to loose sight of normal behaviour. Jack tells Diane that he didn't do it and he asks her if she believes him or not, Diane says that she supposes so. Diane tells Jack that it worries her that he is capable of doing it.
Inside the Hopes flat Viv is talking on the phone when Kelly walks in. Kelly tells Viv that she had to chase up a new contract and that Rodney and Paul are in Italy finishing things off. Viv asks Kelly if she had a good time, Kelly tells her that she had a great time and that they got so much good stuff. Viv tells Kelly that she wants to hear all about it but first she has to tell her some good news. Viv asks her if she wants a coffee but then tells her that coffee isn't a good idea, Kelly looks confused and asks Viv what is going on. Viv tells Kelly that she has just been talking with someone from the surrogacy agency and that it seems the only way that her and Bob can have a baby. Kelly agrees and Viv tells her that she is going to tread carefully as it is a sensitive area. Viv tells Kelly that she wanted to lay the ground with her first and then she would tell Bob. Viv tells Kelly that the agency told her to start off with a family member or a friend but Kelly tells her that there is a small problem. Viv tells Kelly that Bob didn't want a blood relative but this time it will be different. Kelly tells Viv no but Viv tells her that she isn't a blood relative and that they can persuade Bob to agree. Kelly tells Viv that she doesn't care what Bob thinks and that it is nothing personal she just doesn't want to have anyone's baby and she tells Viv that she doesn't even want her own. Viv tells her that there will be some money in it but Kelly tells her that she is not getting fat and that she doesn't want stretch marks but she is sorry. Viv tells Kelly not to tell Bob about it.

---------------------------------------------------------------------------------------------




[SIZE=1]

Format : MPEG-4 Visual
Format profile : Streaming [email protected]
Format settings, BVOP : Yes
Format settings, QPel : No
Format settings, GMC : No warppoints
Format settings, Matrix : Default
Muxing mode : Packed bitstream
Codec ID : XVID
Codec ID/Hint : XviD
Duration : 22mn 1s
Bit rate : 965 Kbps
Width : 640 pixels
Height : 384 pixels
Display aspect ratio : 1.667
Frame rate : 25.000 fps
Resolution : 24 bits
Colorimetry : 4:2:0
Scan type : Progressive
Bits/(Pixel*Frame) : 0.157
Stream size : 152 MiB (87%)
Writing library : XviD 1.0.3 (UTC 2004-12-20)

Format : MPEG Audio
Format version : Version 1
Format profile : Layer 3
Codec ID : 55
Codec ID/Hint : MP3
Duration : 22mn 1s
Bit rate mode : Variable
Bit rate : 133 Kbps
Nominal bit rate : 128 Kbps
Channel(s) : 2 channels
Sampling rate : 48.0 KHz
Resolution : 16 bits
Stream size : 21.0 MiB (12%)
Alignment : Aligned on interleaves
Interleave, duration : 24 ms (0.60 video frame)
Interleave, preload duration : 513 ms
Writing library : LAME3.90.
Encoding settings : ABR



[/SIZE]




===============================

Some of the other rather spiffing shows available now and always if you signup free @ www.TheBox.bz:

Comedy: The Office, Peep Show, Coupling, Chef, Fawlty Towers, Only Fools and Horses, The IT Crowd, Brass Eye, Nathan Barley, Young Ones, Monty Python, Blackadder, Alan Partridge, Father Ted, Coupling, Little Britain, Mr Bean, Extras, Green Wing, Mighty Boosh

Drama: Casualty, Holby City, The Bill, Hustle, Skins, Shameless, Ashes To Ashes

Entertainment: Faking It, Derren Brown, Scrapheap Challenge, Strictly Come Dancing, Wife Swap

Game/Quiz Shows: Whose Line Is It Anyway?, Have I Got News For You, Deal Or No Deal (UK), Q.I.

Education/Documentary: Planet Earth, Horizon, Panorama, Mark Thomas (Comedy) Product

Food: Hell's Kitchen, Jamie Oliver, The F Word, Kitchen Nightmares, Masterchef, Great British Menu, Gordon Ramsay's Cookalong

Home/Property/Garden: Property Ladder, How Clean Is Your House?, Changing Rooms, Grand Designs, Homes Under The Hammer, To Buy Or Not To Buy

Motoring: Top Gear, Fifth Gear

Music: Top Of The Pops, Jools Holland, Glastonbury

Reality: Big Brother, Celebrity Big Brother, I'm a Celebrity - Get Me Out of Here!, Any Dream Will Do, Grease, Pop Idol, Wife Swap, X Factor, Badger Or Bust, Apprentice UK, Dragons' Den, Britain's Got Talent

Sci-Fi: Doctor Who, Red Dwarf, Torchwood, Primeval

Sport: Football (Soccer), Cricket, Rugby, Snooker, Darts, Formula One (F1GP)

Soaps: Eastenders, Coronation Street, Emmerdale, Neighbours, Hollyoaks

Style/Fashion: What Not To Wear, Project Catwalk

Kids: Teletubbies, Blue Peter, Tikkabilla, Andy Pandy, Postman Pat, Shoebox Zoo, Brum, Bob The Builder, Young Dracula, Sarah Jane Adventures, Shaun The Sheep

related torrents

Torrent name

health leech seeds Size
 


comments (0)

Main Menu