UK

Classic Emmerdale (28th September 1995)[VHSRip (XVID)]

  • Download 5x Faster
  • Download torrent
  • Direct Download
  • Rate this torrent +  |  -
Classic Emmerdale (28th September 1995)[VHSRip (XVID)]

Free and Direct Download with Usenet 300GB+ free


Torrent info

Name:Classic Emmerdale (28th September 1995)[VHSRip (XVID)]

Total Size: 195.37 MB

Magnet: Magnet Link

Seeds: 0

Leechers: 0

Stream: Watch Online @ Movie4u

Last Updated: 2015-10-19 21:03:53 (Update Now)

Torrent added: 2009-08-26 09:27:54




Torrent Files List


Classic Emmerdale 1995.09.28.VHSRip.Xvid.(2013).Robinhood99.avi (Size: 195.37 MB) (Files: 1)

 Classic Emmerdale 1995.09.28.VHSRip.Xvid.(2013).Robinhood99.avi

195.37 MB
 

Announce URL:

Torrent description

This torrent was uploaded from www.TheBox.bz (signup is open and free) - the home of all British TV



Classic Emmerdale (28th  September 1995)[VHSRip (XVID)] preview 0


==ORIGINAL UK AIR DATEs:==
28th September 1995
Episode(S) 2013

==Description==
---------------------------------------------------------------------------------------------
[url]http://www.itnsource.com/shotlist//ITVProgs/1995/09/28/Y05242013/?s=emmerdale+2013[/url]

Butch is surveying Holdgate's house ; Zak is proud of his sons when they both suggest robbing the empty house ; Kathy is cool towards Dave ; she pretends that she has caught some sort of bug, but really she is devastated by what she now knows about Dave & Kim ; he reminds her that they are meant to be going to his parents for a meal ; she asks him to make an excuse for her ; Ned receives a hand delivered rejection for the job on the Weir estate ; Roy blames Linda who runs out of the house close to tears ; Dave & Biff discuss Kim ; Biff is sure that she will not jeopardise her marriage to Frank by telling him about the affair ; Dave is not so confident ; Frank is wondering what to do with Holdgate's farm ; he wants to put in tenants who will take care of the place ; he is also worried because the Dingles have been allowed to squat on the land ; Kim seems to have an ulterior motive when she suggests offering the tenancy to the Glovers ; Frank thinks it is a good idea ; Betty walks in on Terry & Tina ; she does not realise that Tina is about to move into the Woolpack ; the Dingles are pleased with their haul from Holdgate's house ; Nellie thinks that they'll make quite a bit at a car boot sale ; Linda is preoccupied with her own problems while working at the surgery ; Betty & Zoe presume that it is man trouble ; Kathy is also in a bad mood & it does not help when Tina winds her up ; Rachel persuades Chris to let her have Joseph christened ; Terry has decided to organise a quiz night ; he
wants to make a go of the Woolpack while Alan is away ; Eric
wonders why he is boosting trade for the brewery & Alan, but
Terry says that it is a matter of pride ; Eric's words of
advice are " always put personal gain above all else -
especially pride " ; Danny turns up to see Linda ; she
agrees to speak to him ; Biff sees them as they drive off.
PART 2 - Danny doesn't believe that he is the father of
Linda's child, but he offers to pay for a termination ; she
cannot believe his arrogance & storms off - not before
bending a windscreen wiper on his precious car ; Chris &
Rachel have a meal at Kathy's tearoom ; Rachel is surprised that Kathy does not look happier considering that she has
just got engaged ; Chris makes a couple of snide comments
much to Rachel's embarrassment ; Zak & Nellie try on
Holdgate's old clothes ; Zak does a bad James Stuart
impression, while Nellie impersonates Alma Cogan ; Dave &
Kim have a frosty meeting ; Frank appears & tells Dave that
his parents can have the tenancy of Holdgate's farm ; Dave
is really pleased until he finds out that it was Kim's idea
; Zoe finds Linda in tears ; Linda confesses that she is
pregnant, but cannot tell her parents ; Nellie probes Tina
until she admits that she has got a new boyfriend ; Zak is
pleased when he finds out that it is Terry " the manager of
a public house " ; Biff waits for Linda when she finishes
work ; he confronts her about meeting Danny at lunchtime ;
she tells him that he wanted to go back out with her but
that she refused.
---------------------------------------------------------------------------------------------




[SIZE=1]
Format : MPEG-4 Visual
Format profile : Streaming [email protected]
Format settings, BVOP : Yes
Format settings, QPel : No
Format settings, GMC : No warppoints
Format settings, Matrix : Default
Muxing mode : Packed bitstream
Codec ID : XVID
Codec ID/Hint : XviD
Duration : 24mn 45s
Bit rate : 954 Kbps
Width : 640 pixels
Height : 480 pixels
Display aspect ratio : 4/3
Frame rate : 25.000 fps
Resolution : 24 bits
Colorimetry : 4:2:0
Scan type : Progressive
Bits/(Pixel*Frame) : 0.124
Stream size : 169 MiB (87%)
Writing library : XviD 1.0.3 (UTC 2004-12-20)

Format : MPEG Audio
Format version : Version 1
Format profile : Layer 3
Codec ID : 55
Codec ID/Hint : MP3
Duration : 24mn 45s
Bit rate mode : Variable
Bit rate : 136 Kbps
Nominal bit rate : 128 Kbps
Channel(s) : 2 channels
Sampling rate : 48.0 KHz
Resolution : 16 bits
Stream size : 24.0 MiB (12%)
Alignment : Aligned on interleaves
Interleave, duration : 24 ms (0.60 video frame)
Interleave, preload duration : 166 ms
Writing library : LAME3.90.
Encoding settings : ABR


[/SIZE]







===============================

Some of the other rather spiffing shows available now and always if you signup free @ www.TheBox.bz:

Comedy: The Office, Peep Show, Coupling, Chef, Fawlty Towers, Only Fools and Horses, The IT Crowd, Brass Eye, Nathan Barley, Young Ones, Monty Python, Blackadder, Alan Partridge, Father Ted, Coupling, Little Britain, Mr Bean, Extras, Green Wing, Mighty Boosh

Drama: Casualty, Holby City, The Bill, Hustle, Skins, Shameless, Ashes To Ashes

Entertainment: Faking It, Derren Brown, Scrapheap Challenge, Strictly Come Dancing, Wife Swap

Game/Quiz Shows: Whose Line Is It Anyway?, Have I Got News For You, Deal Or No Deal (UK), Q.I.

Education/Documentary: Planet Earth, Horizon, Panorama, Mark Thomas (Comedy) Product

Food: Hell's Kitchen, Jamie Oliver, The F Word, Kitchen Nightmares, Masterchef, Great British Menu, Gordon Ramsay's Cookalong

Home/Property/Garden: Property Ladder, How Clean Is Your House?, Changing Rooms, Grand Designs, Homes Under The Hammer, To Buy Or Not To Buy

Motoring: Top Gear, Fifth Gear

Music: Top Of The Pops, Jools Holland, Glastonbury

Reality: Big Brother, Celebrity Big Brother, I'm a Celebrity - Get Me Out of Here!, Any Dream Will Do, Grease, Pop Idol, Wife Swap, X Factor, Badger Or Bust, Apprentice UK, Dragons' Den, Britain's Got Talent

Sci-Fi: Doctor Who, Red Dwarf, Torchwood, Primeval

Sport: Football (Soccer), Cricket, Rugby, Snooker, Darts, Formula One (F1GP)

Soaps: Eastenders, Coronation Street, Emmerdale, Neighbours, Hollyoaks

Style/Fashion: What Not To Wear, Project Catwalk

Kids: Teletubbies, Blue Peter, Tikkabilla, Andy Pandy, Postman Pat, Shoebox Zoo, Brum, Bob The Builder, Young Dracula, Sarah Jane Adventures, Shaun The Sheep

related torrents

Torrent name

health leech seeds Size
 

comments (0)

Main Menu