UK

Classic Emmerdale (27th June 2006)[TvRip (XVID)]

  • Download 5x Faster
  • Download torrent
  • Direct Download
  • Rate this torrent +  |  -
Classic Emmerdale (27th June 2006)[TvRip (XVID)]

Free and Direct Download with Usenet 300GB+ free


Torrent info

Name:Classic Emmerdale (27th June 2006)[TvRip (XVID)]

Total Size: 174.85 MB

Magnet: Magnet Link

Seeds: 5

Leechers: 0

Stream: Watch Online @ Movie4u

Last Updated: 2010-08-07 21:55:08 (Update Now)

Torrent added: 2009-08-26 09:27:52




Torrent Files List


Classic Emmerdale 2006.06.27.TvRip.Xvid.(4397).Robinhood99.avi (Size: 174.85 MB) (Files: 1)

 Classic Emmerdale 2006.06.27.TvRip.Xvid.(4397).Robinhood99.avi

174.85 MB
 

Announce URL: http://www.thebox.bz:2710/00000000000000000000000000000000/announce

Torrent description

This torrent was uploaded from www.TheBox.bz (signup is open and free) - the home of all British TV



Classic Emmerdale (27th June 2006)[TvRip (XVID)] preview 0


==ORIGINAL UK AIR DATEs:==
27th June 2006
Episode(S) 4397

==Description==
---------------------------------------------------------------------------------------------
[url]http://www.itnsource.com/shotlist//ITVProgs/2006/06/27/Y05244397A/?s=emmerdale+4397[/url]

Outside on the main street Shadrach is nearly run over by Jimmy who tells him that he should be more careful next time. Shadrach tells him that he isn't so lucky having mush stuck in his face and that he feels like chundering as it is. Carl gets out of the car and asks Shadrach what he was playing at yesterday and Shadrach tells him that when someone offers to buy you a bottle of whisky you accept the terms and conditions. Jimmy tells Shadrach that he hopes that yesterday's episode doesn't have any repercussions on him otherwise there will be plenty for him. Carl tells Jimmy to hang on and he asks Shadrach what he means by the terms and conditions. Shadrach tells her that he can't comment further on an empty stomach.
Inside Hopes café Viv asks Bob to ring Dawn again as she is late. Bob has a raffle ticket in his hand for the Kings River house raffle and Viv tells him that he can't waste money on things like that. Bob tells her that it's for a dirt cheap house but Viv asks him what they are going to do with it. Bob tells Viv that they can fill it with the kids the way they are going and Bob tells her that he knows he is a lucky man and he doesn't want things to change. Viv tells him that if and when things change it will be for the better and that she will need his full commitment. Dawn walks in and Viv tells her that she is glad that she has turned up because her and Bob are going and she is leaving her in charge. Shadrach picks some food up and tells Dawn that he paid for them before she came in but Dawn tells him that he can have them because he has had his hands on them. Len is worried that news is travelling fast and Danny tells him it is because people care. Len asks Danny why Pearl didn't talk to him because he still loves her. Delilah comes in the café and Len calls her over, she tells him that she has heard and that she is sorry. Len tells Delilah that Pearl said something similar to her but it didn't wash and that they were ganging up on her like they were something special. Delilah tells Len that she didn't know what happened and that all she knows is that she lost her money and that Pearl did say something about Eric tricking her. Danny tells him not to go flying up there until he knows what's what. Len tells him that Pollard can wait and that it is him and Edna that have some business.
Inside the Woolpack Diane tells Jack that Pearl has done a bunk and Jack asks her how. Diane tells him he can barely grasp the concept of the act and that apparently there was a commotion in the pub between Eric and Len. Diane tells Jack that Pearl was apparently stealing, Jimmy walks in and Diane tells him that Jack doesn't want a raffle ticket. Jimmy tells Jack that he will do something if he pulls another stunt like that again. Diane asks Jimmy to explain and he tells her that Jack will do anything to sabotage his business. Jack tells Jimmy that it is a serious accusation and that he hopes he can prove it but Jimmy tells him not to think that he is clever and that Shadrach will do whatever the highest bidder tells him to. Jack asks him what that is then, just because he bought him a bottle of whisky with malice aforethought. Jimmy tells Jack that he will push him too far but Jack tells him far enough he hopes.
---------------------------------------------------------------------------------------------




[SIZE=1]

Format : MPEG-4 Visual
Format profile : Streaming [email protected]
Format settings, BVOP : Yes
Format settings, QPel : No
Format settings, GMC : No warppoints
Format settings, Matrix : Default
Muxing mode : Packed bitstream
Codec ID : XVID
Codec ID/Hint : XviD
Duration : 21mn 15s
Bit rate : 1 005 Kbps
Width : 640 pixels
Height : 384 pixels
Display aspect ratio : 1.667
Frame rate : 25.000 fps
Resolution : 24 bits
Colorimetry : 4:2:0
Scan type : Progressive
Bits/(Pixel*Frame) : 0.164
Stream size : 153 MiB (87%)
Writing library : XviD 1.0.3 (UTC 2004-12-20)


Format : MPEG Audio
Format version : Version 1
Format profile : Layer 3
Codec ID : 55
Codec ID/Hint : MP3
Duration : 21mn 15s
Bit rate mode : Variable
Bit rate : 132 Kbps
Nominal bit rate : 128 Kbps
Channel(s) : 2 channels
Sampling rate : 48.0 KHz
Resolution : 16 bits
Stream size : 20.1 MiB (11%)
Alignment : Aligned on interleaves
Interleave, duration : 24 ms (0.60 video frame)
Interleave, preload duration : 494 ms
Writing library : LAME3.90.
Encoding settings : ABR





[/SIZE]





===============================

Some of the other rather spiffing shows available now and always if you signup free @ www.TheBox.bz:

Comedy: The Office, Peep Show, Coupling, Chef, Fawlty Towers, Only Fools and Horses, The IT Crowd, Brass Eye, Nathan Barley, Young Ones, Monty Python, Blackadder, Alan Partridge, Father Ted, Coupling, Little Britain, Mr Bean, Extras, Green Wing, Mighty Boosh

Drama: Casualty, Holby City, The Bill, Hustle, Skins, Shameless, Ashes To Ashes

Entertainment: Faking It, Derren Brown, Scrapheap Challenge, Strictly Come Dancing, Wife Swap

Game/Quiz Shows: Whose Line Is It Anyway?, Have I Got News For You, Deal Or No Deal (UK), Q.I.

Education/Documentary: Planet Earth, Horizon, Panorama, Mark Thomas (Comedy) Product

Food: Hell's Kitchen, Jamie Oliver, The F Word, Kitchen Nightmares, Masterchef, Great British Menu, Gordon Ramsay's Cookalong

Home/Property/Garden: Property Ladder, How Clean Is Your House?, Changing Rooms, Grand Designs, Homes Under The Hammer, To Buy Or Not To Buy

Motoring: Top Gear, Fifth Gear

Music: Top Of The Pops, Jools Holland, Glastonbury

Reality: Big Brother, Celebrity Big Brother, I'm a Celebrity - Get Me Out of Here!, Any Dream Will Do, Grease, Pop Idol, Wife Swap, X Factor, Badger Or Bust, Apprentice UK, Dragons' Den, Britain's Got Talent

Sci-Fi: Doctor Who, Red Dwarf, Torchwood, Primeval

Sport: Football (Soccer), Cricket, Rugby, Snooker, Darts, Formula One (F1GP)

Soaps: Eastenders, Coronation Street, Emmerdale, Neighbours, Hollyoaks

Style/Fashion: What Not To Wear, Project Catwalk

Kids: Teletubbies, Blue Peter, Tikkabilla, Andy Pandy, Postman Pat, Shoebox Zoo, Brum, Bob The Builder, Young Dracula, Sarah Jane Adventures, Shaun The Sheep

related torrents

Torrent name

health leech seeds Size
 

comments (0)

Main Menu