UK

Classic Emmerdale (26th June 2006)[TvRip (XVID)]

  • Download 5x Faster
  • Download torrent
  • Direct Download
  • Rate this torrent +  |  -
Classic Emmerdale (26th June 2006)[TvRip (XVID)]

Free and Direct Download with Usenet.nl 300GB+ free


Torrent info

Name:Classic Emmerdale (26th June 2006)[TvRip (XVID)]

Total Size: 174.86 MB

Magnet: Magnet Link

Seeds: 5

Leechers: 0

Stream: Watch Online @ Movie4u

Last Updated: 2010-08-04 07:47:12 (Update Now)

Torrent added: 2009-08-26 09:27:51





Torrent Files List


Classic Emmerdale 2006.06.26.TvRip.Xvid.(4396).Robinhood99.avi (Size: 174.86 MB) (Files: 1)

 Classic Emmerdale 2006.06.26.TvRip.Xvid.(4396).Robinhood99.avi

174.86 MB
 

Announce URL: http://www.thebox.bz:2710/00000000000000000000000000000000/announce

Torrent description

This torrent was uploaded from www.TheBox.bz (signup is open and free) - the home of all British TV



Classic Emmerdale (26th June 2006)[TvRip (XVID)] preview 0


==ORIGINAL UK AIR DATEs:==
26th June 2006
Episode(S) 4396

==Description==
---------------------------------------------------------------------------------------------
[url]http://www.itnsource.com/shotlist//ITVProgs/2006/06/26/Y05244396A/?s=emmerdale+4396[/url]

Inside Hopes café Zak tries to get Paddy to pay for his breakfast but Donna runs after him. Delilah goes up to Paddy and says hello, Paddy tells her that he hasn't seen her in hours. Bob points out the love in the air while Viv tells them that they haven't got all day. Paddy says to Viv that she has got all day because this is her job but Bob steps in and tells Paddy that they are going to see the fertility doctor soon. Paddy tells Bob to wait until the doctor starts probing him, but Viv tells him that there will be no probing as the doctor is the best around. Delilah asks if probing is a bad or a good thing and Bob tells her that it is a bad thing. Viv tells Bob that the doctor is the best there is at giving people babies and in a year's time they could be a family. Donna says thanks to Viv and Bob but Viv tells her that she won't be replaced. Bob makes a joke and says that the baby will be a spare in case Donna breaks and Viv tells her that they just want to create a life together. Donna tells Viv and Bob that she is glad they have dropped the idea of her getting involved and what ever makes them happy. Bob tells Donna that he will get back to her on that when he has seen the doctor's bill but Viv tells him that you can't put a price on the miracle of creation.
Inside Jacobs Fold Danny is cooking food and tells Pearl that this is the second time this year he has had to cook his own food. Pearl tells him to sit down and she will make it but Danny tells her that he is only joking. Danny asks what they want to eat and that as least he is having a go, Len tells Danny that he is the executive chef. Len goes over to Pearl and asks her what the matter is but Pearl tells him nothing and that she doesn't want anything to eat. Len asks her if it is about Val, Pearl asks Danny if he could leave her and Len for a few minutes. Danny tells her that he will go and get a paper and asks them to watch his bacon. Len asks her what the matter is and Pearl tells him that she has to tell him that she is just a bit off colour. Len asks her if she sent Danny out for that and Pearl tells him that she doesn't want anyone to know her business. Len tells Pearl to go upstairs and have an hour and he will ring in for her but Pearl tells him that she will be fine. Pearl gets up and leaves the house.
Inside the Vets Surgery a woman runs out crying as Paddy walks in and tells Hari well done with the customer satisfaction.

---------------------------------------------------------------------------------------------




[SIZE=1]

Format : MPEG-4 Visual
Format profile : Streaming [email protected]
Format settings, BVOP : Yes
Format settings, QPel : No
Format settings, GMC : No warppoints
Format settings, Matrix : Default
Muxing mode : Packed bitstream
Codec ID : XVID
Codec ID/Hint : XviD
Duration : 21mn 11s
Bit rate : 1 007 Kbps
Width : 640 pixels
Height : 384 pixels
Display aspect ratio : 1.667
Frame rate : 25.000 fps
Resolution : 24 bits
Colorimetry : 4:2:0
Scan type : Progressive
Bits/(Pixel*Frame) : 0.164
Stream size : 153 MiB (87%)
Writing library : XviD 1.0.3 (UTC 2004-12-20)

Format : MPEG Audio
Format version : Version 1
Format profile : Layer 3
Codec ID : 55
Codec ID/Hint : MP3
Duration : 21mn 11s
Bit rate mode : Variable
Bit rate : 133 Kbps
Nominal bit rate : 128 Kbps
Channel(s) : 2 channels
Sampling rate : 48.0 KHz
Resolution : 16 bits
Stream size : 20.2 MiB (12%)
Alignment : Aligned on interleaves
Interleave, duration : 24 ms (0.60 video frame)
Interleave, preload duration : 483 ms
Writing library : LAME3.90.
Encoding settings : ABR






[/SIZE]







===============================

Some of the other rather spiffing shows available now and always if you signup free @ www.TheBox.bz:

Comedy: The Office, Peep Show, Coupling, Chef, Fawlty Towers, Only Fools and Horses, The IT Crowd, Brass Eye, Nathan Barley, Young Ones, Monty Python, Blackadder, Alan Partridge, Father Ted, Coupling, Little Britain, Mr Bean, Extras, Green Wing, Mighty Boosh

Drama: Casualty, Holby City, The Bill, Hustle, Skins, Shameless, Ashes To Ashes

Entertainment: Faking It, Derren Brown, Scrapheap Challenge, Strictly Come Dancing, Wife Swap

Game/Quiz Shows: Whose Line Is It Anyway?, Have I Got News For You, Deal Or No Deal (UK), Q.I.

Education/Documentary: Planet Earth, Horizon, Panorama, Mark Thomas (Comedy) Product

Food: Hell's Kitchen, Jamie Oliver, The F Word, Kitchen Nightmares, Masterchef, Great British Menu, Gordon Ramsay's Cookalong

Home/Property/Garden: Property Ladder, How Clean Is Your House?, Changing Rooms, Grand Designs, Homes Under The Hammer, To Buy Or Not To Buy

Motoring: Top Gear, Fifth Gear

Music: Top Of The Pops, Jools Holland, Glastonbury

Reality: Big Brother, Celebrity Big Brother, I'm a Celebrity - Get Me Out of Here!, Any Dream Will Do, Grease, Pop Idol, Wife Swap, X Factor, Badger Or Bust, Apprentice UK, Dragons' Den, Britain's Got Talent

Sci-Fi: Doctor Who, Red Dwarf, Torchwood, Primeval

Sport: Football (Soccer), Cricket, Rugby, Snooker, Darts, Formula One (F1GP)

Soaps: Eastenders, Coronation Street, Emmerdale, Neighbours, Hollyoaks

Style/Fashion: What Not To Wear, Project Catwalk

Kids: Teletubbies, Blue Peter, Tikkabilla, Andy Pandy, Postman Pat, Shoebox Zoo, Brum, Bob The Builder, Young Dracula, Sarah Jane Adventures, Shaun The Sheep

related torrents

Torrent name

health leech seeds Size
 

comments (0)

Main Menu