UK

Classic Emmerdale (26th September 1995)[VHSRip (XVID)]

  • Download 5x Faster
  • Download torrent
  • Direct Download
  • Rate this torrent +  |  -
Classic Emmerdale (26th September 1995)[VHSRip (XVID)]

Anonymous and Direct Download 300GB+ free


Torrent info

Name:Classic Emmerdale (26th September 1995)[VHSRip (XVID)]

Total Size: 194.87 MB

Magnet: Magnet Link

Seeds: 0

Leechers: 0

Stream: Watch Online @ Movie4u

Last Updated: 2014-07-12 08:00:41 (Update Now)

Torrent added: 2009-08-26 09:27:50




Torrent Files List


Classic Emmerdale 1995.09.26.VHSRip.Xvid.(2012).Robinhood99.avi (Size: 194.87 MB) (Files: 1)

 Classic Emmerdale 1995.09.26.VHSRip.Xvid.(2012).Robinhood99.avi

194.87 MB
 

Announce URL:

Torrent description

This torrent was uploaded from www.TheBox.bz (signup is open and free) - the home of all British TV



Classic Emmerdale (26th  September 1995)[VHSRip (XVID)] preview 0


==ORIGINAL UK AIR DATEs:==
26th September 1995
Episode(S) 2012

==Description==
---------------------------------------------------------------------------------------------
[url]http://www.itnsource.com/shotlist//ITVProgs/1995/09/26/Y05242012/?s=emmerdale+2012[/url]

Dave & Kathy are sneaking a quick kiss when Betty walks in ; she notices Kathy's engagement ring straightaway & congratulates them ; Dave says that they thought if they told Betty it " would save sending out cards " ; Nellie & Zak are not speaking ; she is going to Holdgate's (Holgit) funeral ; Tina has spent another night with Terry ; she teases him about his fitness ; he asks her if she wants to be the unofficial landlady of the Woolpack while Alan is away ; Kim presses Dave for an answer ; Betty is quick to spread the news about the engagement ; she claims that they wanted her to be the first to know ; Tina winds Betty up by making a snotty comment about being engaged ; Linda is late for work as she had a doctors appointment ; Chris is still sulking about Rachel working at the Woolpack ; Alan is dishing out orders to Terry ; he is worried about the staff that Terry is planning to employ while he is away ; Nellie arrives back from the funeral ; Kathy calls round & tells Chris about her engagement ; he is surprised that she is getting tied down so quickly ; Nellie makes eyes at Eric in the Woolpack ; both Ned & Biff are pleased for Dave ; Linda seems preoccupied ; she telephones her doctor (Dr O'Neill - 14, Templar Road, Hotten) & asks for the results of her test.
PART 2 - Linda is upset, but Zoe does not seem to notice ; Zak & Nellie are still arguing ; Alan is dressed up for dinner at the Weir's ; before he leaves, he mentions to
Terry that he thinks Tina Dingle has a crush on him ; Terry
acts surprised & flattered ; Chris is round at Home Farm ;
he is telling Frank about Kathy & Dave's engagement ; Kim
is so shocked that she drops a bottle of gin on the floor ;
she makes an excuse to leave the room ; Chris mentions to
Frank that Kim is a bit uptight ; Frank blames the fact
that they both attended Holdgate's funeral (he was one of
Frank's tenant farmers) ; he thinks that it has made Kim
more aware of their age difference ; Alan is enjoying a meal
at Weir Hall with Danny, Vanessa & Libbis ; Linda bursts in
& announces that she is pregnant ; Kathy mentions Jackie, her first husband ; Dave says that it does not bother him
that she has been married before ; Kim telephones him at
Kathy's ; she obviously demands that he meet her
straightaway ; Lady Weir accuses Linda of goldigging & being
" an immature little tramp "; Alan defends her & tells
Vanessa that he no longer wants to be friends ; he takes a
very distressed Linda home ; Kim is furious with Dave ; he
tries to explain, but as they are talking she pushes him
against Kathy's intercom ; Kathy picks up the phone & looks
shocked as she unfortunately hears all the conversation
between Kim & Dave.
---------------------------------------------------------------------------------------------




[SIZE=1]
Format : MPEG-4 Visual
Format profile : Streaming [email protected]
Format settings, BVOP : Yes
Format settings, QPel : No
Format settings, GMC : No warppoints
Format settings, Matrix : Default
Muxing mode : Packed bitstream
Codec ID : XVID
Codec ID/Hint : XviD
Duration : 24mn 36s
Bit rate : 958 Kbps
Width : 640 pixels
Height : 480 pixels
Display aspect ratio : 4/3
Frame rate : 25.000 fps
Resolution : 24 bits
Colorimetry : 4:2:0
Scan type : Progressive
Bits/(Pixel*Frame) : 0.125
Stream size : 169 MiB (87%)
Writing library : XviD 1.0.3 (UTC 2004-12-20)

Format : MPEG Audio
Format version : Version 1
Format profile : Layer 3
Codec ID : 55
Codec ID/Hint : MP3
Duration : 24mn 36s
Bit rate mode : Variable
Bit rate : 136 Kbps
Nominal bit rate : 128 Kbps
Channel(s) : 2 channels
Sampling rate : 48.0 KHz
Resolution : 16 bits
Stream size : 23.9 MiB (12%)
Alignment : Aligned on interleaves
Interleave, duration : 24 ms (0.60 video frame)
Interleave, preload duration : 378 ms
Writing library : LAME3.90.
Encoding settings : ABR


[/SIZE]




===============================

Some of the other rather spiffing shows available now and always if you signup free @ www.TheBox.bz:

Comedy: The Office, Peep Show, Coupling, Chef, Fawlty Towers, Only Fools and Horses, The IT Crowd, Brass Eye, Nathan Barley, Young Ones, Monty Python, Blackadder, Alan Partridge, Father Ted, Coupling, Little Britain, Mr Bean, Extras, Green Wing, Mighty Boosh

Drama: Casualty, Holby City, The Bill, Hustle, Skins, Shameless, Ashes To Ashes

Entertainment: Faking It, Derren Brown, Scrapheap Challenge, Strictly Come Dancing, Wife Swap

Game/Quiz Shows: Whose Line Is It Anyway?, Have I Got News For You, Deal Or No Deal (UK), Q.I.

Education/Documentary: Planet Earth, Horizon, Panorama, Mark Thomas (Comedy) Product

Food: Hell's Kitchen, Jamie Oliver, The F Word, Kitchen Nightmares, Masterchef, Great British Menu, Gordon Ramsay's Cookalong

Home/Property/Garden: Property Ladder, How Clean Is Your House?, Changing Rooms, Grand Designs, Homes Under The Hammer, To Buy Or Not To Buy

Motoring: Top Gear, Fifth Gear

Music: Top Of The Pops, Jools Holland, Glastonbury

Reality: Big Brother, Celebrity Big Brother, I'm a Celebrity - Get Me Out of Here!, Any Dream Will Do, Grease, Pop Idol, Wife Swap, X Factor, Badger Or Bust, Apprentice UK, Dragons' Den, Britain's Got Talent

Sci-Fi: Doctor Who, Red Dwarf, Torchwood, Primeval

Sport: Football (Soccer), Cricket, Rugby, Snooker, Darts, Formula One (F1GP)

Soaps: Eastenders, Coronation Street, Emmerdale, Neighbours, Hollyoaks

Style/Fashion: What Not To Wear, Project Catwalk

Kids: Teletubbies, Blue Peter, Tikkabilla, Andy Pandy, Postman Pat, Shoebox Zoo, Brum, Bob The Builder, Young Dracula, Sarah Jane Adventures, Shaun The Sheep

related torrents

Torrent name

health leech seeds Size
 


comments (0)

Main Menu