UK

Classic Emmerdale (22nd 26th August 2005)[TvRip (XVID)]

  • Download 5x Faster
  • Download torrent
  • Direct Download
  • Rate this torrent +  |  -
Classic Emmerdale (22nd 26th August 2005)[TvRip (XVID)]

Free and Direct Download with Usenet.nl 300GB+ free


Torrent info

Name:Classic Emmerdale (22nd 26th August 2005)[TvRip (XVID)]

Total Size: 875.77 MB

Magnet: Magnet Link

Seeds: 0

Leechers: 0

Stream: Watch Online @ Movie4u

Last Updated: 2015-10-20 11:48:23 (Update Now)

Torrent added: 2009-08-26 09:27:48





Torrent Files List


Classic Emmerdale 2005.08.22.TvRip.Xvid.(4132).Robinhood99.avi (Size: 875.77 MB) (Files: 5)

 Classic Emmerdale 2005.08.22.TvRip.Xvid.(4132).Robinhood99.avi

175.20 MB

 Classic Emmerdale 2005.08.23.TvRip.Xvid.(4133).Robinhood99.avi

175.17 MB

 Classic Emmerdale 2005.08.24.TvRip.Xvid.(4134).Robinhood99.avi

175.19 MB

 Classic Emmerdale 2005.08.25.TvRip.Xvid.(4135).Robinhood99.avi

175.22 MB

 Classic Emmerdale 2005.08.26.TvRip.Xvid.(4136).Robinhood99.avi

175.00 MB
 

Announce URL:

Torrent description

This torrent was uploaded from www.TheBox.bz (signup is open and free) - the home of all British TV



Classic Emmerdale (22nd   26th August 2005)[TvRip (XVID)] preview 0



==ORIGINAL UK AIR DATEs:==
August 22nd - 26th 2005
Episodes 4132-4136

==Description==
---------------------------------------------------------------------------------------------
[url]http://www.emmerdale.org/emmerdale/2005/05augustindex.htm[/url]

Episode: 4132 - Monday 22nd August 2005
A run-in with the law in Newcastle brings Marlon and Donna back together. Viv wins back Bob by showing off her chef skills at the cookery contest. Diane gets an eye opener down memory lane.

Episode: 4133 - Tuesday 23rd August 2005
Tony Christie isn’t the only blast from the past for Diane in Newcastle. A Windsors double proposal leads to drunken decisions. Paul tries to forget his past.

Episode: 4134 - Wednesday 24th August 2005
Val’s rattled when her old flame, Jimmy Pepper, turns up in the village looking for answers. Kelly delights in pointing out Donna’s lack of engagement ring bling. Zak reassures Sam that he’ll be a great dad.

Episode: 4135 - Thursday 25th August 2005
Val explodes when Jimmy Pepper bleeds her dry. Carl reports to Tom when Jimmy puts the kibosh on his business plans. Donna’s rock turns out to be no diamond.

Episode: 4136 - Friday 26th August 2005
With Jimmy on side, Matthew makes moves to sell Tom’s business out from under him. Val comes up with a plan to pay off Jimmy Pepper. Ivan fears Jarvis’ working days are numbered.

----------------------------------------------------------------------------------------------


Approx for each episode
[SIZE=1]

Format : MPEG-4 Visual
Format profile : Streaming [email protected]
Format settings, BVOP : Yes
Format settings, QPel : No
Format settings, GMC : No warppoints
Format settings, Matrix : Default
Muxing mode : Packed bitstream
Codec ID : XVID
Codec ID/Hint : XviD
Duration : 22mn 37s
Bit rate : 939 Kbps
Width : 640 pixels
Height : 384 pixels
Display aspect ratio : 1.667
Frame rate : 25.000 fps
Resolution : 24 bits
Colorimetry : 4:2:0
Scan type : Progressive
Bits/(Pixel*Frame) : 0.153
Stream size : 152 MiB (87%)
Writing library : XviD 1.0.3 (UTC 2004-12-20)

Format : MPEG Audio
Format version : Version 1
Format profile : Layer 3
Codec ID : 55
Codec ID/Hint : MP3
Duration : 22mn 37s
Bit rate mode : Variable
Bit rate : 129 Kbps
Nominal bit rate : 128 Kbps
Channel(s) : 2 channels
Sampling rate : 48.0 KHz
Resolution : 16 bits
Stream size : 20.9 MiB (12%)
Alignment : Aligned on interleaves
Interleave, duration : 24 ms (0.60 video frame)
Interleave, preload duration : 505 ms
Writing library : LAME3.90.
Encoding settings : ABR




[/SIZE]



===============================

Some of the other rather spiffing shows available now and always if you signup free @ www.TheBox.bz:

Comedy: The Office, Peep Show, Coupling, Chef, Fawlty Towers, Only Fools and Horses, The IT Crowd, Brass Eye, Nathan Barley, Young Ones, Monty Python, Blackadder, Alan Partridge, Father Ted, Coupling, Little Britain, Mr Bean, Extras, Green Wing, Mighty Boosh

Drama: Casualty, Holby City, The Bill, Hustle, Skins, Shameless, Ashes To Ashes

Entertainment: Faking It, Derren Brown, Scrapheap Challenge, Strictly Come Dancing, Wife Swap

Game/Quiz Shows: Whose Line Is It Anyway?, Have I Got News For You, Deal Or No Deal (UK), Q.I.

Education/Documentary: Planet Earth, Horizon, Panorama, Mark Thomas (Comedy) Product

Food: Hell's Kitchen, Jamie Oliver, The F Word, Kitchen Nightmares, Masterchef, Great British Menu, Gordon Ramsay's Cookalong

Home/Property/Garden: Property Ladder, How Clean Is Your House?, Changing Rooms, Grand Designs, Homes Under The Hammer, To Buy Or Not To Buy

Motoring: Top Gear, Fifth Gear

Music: Top Of The Pops, Jools Holland, Glastonbury

Reality: Big Brother, Celebrity Big Brother, I'm a Celebrity - Get Me Out of Here!, Any Dream Will Do, Grease, Pop Idol, Wife Swap, X Factor, Badger Or Bust, Apprentice UK, Dragons' Den, Britain's Got Talent

Sci-Fi: Doctor Who, Red Dwarf, Torchwood, Primeval

Sport: Football (Soccer), Cricket, Rugby, Snooker, Darts, Formula One (F1GP)

Soaps: Eastenders, Coronation Street, Emmerdale, Neighbours, Hollyoaks

Style/Fashion: What Not To Wear, Project Catwalk

Kids: Teletubbies, Blue Peter, Tikkabilla, Andy Pandy, Postman Pat, Shoebox Zoo, Brum, Bob The Builder, Young Dracula, Sarah Jane Adventures, Shaun The Sheep

related torrents

Torrent name

health leech seeds Size
 

comments (0)

Main Menu