UK

Classic Emmerdale (21st March 2005)[WS TvRip (XVID)]

  • Download 5x Faster
  • Download torrent
  • Direct Download
  • Rate this torrent +  |  -
Classic Emmerdale (21st March 2005)[WS TvRip (XVID)]

Anonymous and Free Direct Download 300GB+


Torrent info

Name:Classic Emmerdale (21st March 2005)[WS TvRip (XVID)]

Total Size: 175.18 MB

Magnet: Magnet Link

Seeds: 0

Leechers: 0

Stream: Watch Online @ Movie4u

Last Updated: 2016-01-29 10:56:25 (Update Now)

Torrent added: 2009-08-26 09:27:46



VPN For Torrents

Torrent Files List


Classic Emmerdale 2005.03.21.TvRip.Xvid.(4003).Robinhood99.avi (Size: 175.18 MB) (Files: 1)

 Classic Emmerdale 2005.03.21.TvRip.Xvid.(4003).Robinhood99.avi

175.18 MB
 

tracker

leech seeds
 

Torrent description

This torrent was uploaded from www.TheBox.bz (signup is open and free) - the home of all British TV

These Episodes are shown in Canada on "CBC CBET". They are Classic Emmerdale to those in the UK, but to everyone
in North America...They are new.

Canadian Air Date: March 13, 2009

Classic Emmerdale (21st  March 2005)[WS TvRip (XVID)] preview 0

==ORIGINAL UK AIR DATE:==
21 March 2005
Episode #4003

==Description==
---------------------------------------------------------------------------------------------
Click Here For Link

Louise (Emily Symons) and Terry (Billy Hartman) decide to go through with the mortgage on the B&B but Louise is surprised when Matthew (Matt Healy) sends Carl (Tom Lister) in his place with the documentation.
Matthew

Later that day Louise goes to visit Matthew and hands over the signed forms. She apologises for the previous day but Matthew insists that she got the wrong idea, not him. She offers to buy him a drink, but Matthew refuses and shuts the door on a disappointed Louise.

Meanwhile, Colleen (Melanie Ash) joins Chloe (Amy Nuttall) and Carl for dinner and Chloe lays on the charm offensive. The subject of the poison pen letters comes up and Chloe insists that she never believed that Colleen sent them. Carl is left thoughtful, hoping to get to the bottom of the letters.

Elsewhere, Laurel (Charlotte Bellamy) admits to Ashley (John Middleton) that she’s finding the distance between them difficult and he confesses that he is finding it equally as hard.

----------------------------------------------------------------------------------------------

[SIZE=1]

Format : MPEG Audio
Format version : Version 1
Format profile : Layer 3
Codec ID : 55
Codec ID/Hint : MP3
Duration : 22mn 22s
Bit rate mode : Variable
Bit rate : 133 Kbps
Nominal bit rate : 128 Kbps
Channel(s) : 2 channels
Sampling rate : 48.0 KHz
Resolution : 16 bits
Stream size : 21.3 MiB (12%)
Alignment : Aligned on interleaves
Interleave, duration : 24 ms (0.72 video frame)
Interleave, preload duration : 485 ms
Writing library : LAME3.90.
Encoding settings : ABR

Format : MPEG Audio
Format version : Version 1
Format profile : Layer 3
Codec ID : 55
Codec ID/Hint : MP3
Duration : 22mn 22s
Bit rate mode : Variable
Bit rate : 133 Kbps
Nominal bit rate : 128 Kbps
Channel(s) : 2 channels
Sampling rate : 48.0 KHz
Resolution : 16 bits
Stream size : 21.3 MiB (12%)
Alignment : Aligned on interleaves
Interleave, duration : 24 ms (0.72 video frame)
Interleave, preload duration : 485 ms
Writing library : LAME3.90.
Encoding settings : ABR

[/SIZE]



===============================

Some of the other rather spiffing shows available now and always if you signup free @ www.TheBox.bz:

Comedy: The Office, Peep Show, Coupling, Chef, Fawlty Towers, Only Fools and Horses, The IT Crowd, Brass Eye, Nathan Barley, Young Ones, Monty Python, Blackadder, Alan Partridge, Father Ted, Coupling, Little Britain, Mr Bean, Extras, Green Wing, Mighty Boosh

Drama: Casualty, Holby City, The Bill, Hustle, Skins, Shameless, Ashes To Ashes

Entertainment: Faking It, Derren Brown, Scrapheap Challenge, Strictly Come Dancing, Wife Swap

Game/Quiz Shows: Whose Line Is It Anyway?, Have I Got News For You, Deal Or No Deal (UK), Q.I.

Education/Documentary: Planet Earth, Horizon, Panorama, Mark Thomas (Comedy) Product

Food: Hell's Kitchen, Jamie Oliver, The F Word, Kitchen Nightmares, Masterchef, Great British Menu, Gordon Ramsay's Cookalong

Home/Property/Garden: Property Ladder, How Clean Is Your House?, Changing Rooms, Grand Designs, Homes Under The Hammer, To Buy Or Not To Buy

Motoring: Top Gear, Fifth Gear

Music: Top Of The Pops, Jools Holland, Glastonbury

Reality: Big Brother, Celebrity Big Brother, I'm a Celebrity - Get Me Out of Here!, Any Dream Will Do, Grease, Pop Idol, Wife Swap, X Factor, Badger Or Bust, Apprentice UK, Dragons' Den, Britain's Got Talent

Sci-Fi: Doctor Who, Red Dwarf, Torchwood, Primeval

Sport: Football (Soccer), Cricket, Rugby, Snooker, Darts, Formula One (F1GP)

Soaps: Eastenders, Coronation Street, Emmerdale, Neighbours, Hollyoaks

Style/Fashion: What Not To Wear, Project Catwalk

Kids: Teletubbies, Blue Peter, Tikkabilla, Andy Pandy, Postman Pat, Shoebox Zoo, Brum, Bob The Builder, Young Dracula, Sarah Jane Adventures, Shaun The Sheep

related torrents

Torrent name

health leech seeds Size
 


comments (0)

Main Menu