UK

Classic Emmerdale (1st June 2006)[TvRip (XVID)]

  • Download 5x Faster
  • Download torrent
  • Direct Download
  • Rate this torrent +  |  -
Classic Emmerdale (1st June 2006)[TvRip (XVID)]

Free and Direct Download with Usenet.nl 300GB+ free


Torrent info

Name:Classic Emmerdale (1st June 2006)[TvRip (XVID)]

Total Size: 174.94 MB

Magnet: Magnet Link

Seeds: 4

Leechers: 0

Stream: Watch Online @ Movie4u

Last Updated: 2010-08-03 15:17:25 (Update Now)

Torrent added: 2009-08-26 09:27:45





Torrent Files List


Classic Emmerdale 2006.06.01.TvRip.Xvid.(4377).Robinhood99.avi (Size: 174.94 MB) (Files: 1)

 Classic Emmerdale 2006.06.01.TvRip.Xvid.(4377).Robinhood99.avi

174.94 MB
 

Announce URL: http://www.thebox.bz:2710/00000000000000000000000000000000/announce

Torrent description

This torrent was uploaded from www.TheBox.bz (signup is open and free) - the home of all British TV



Classic Emmerdale (1st June 2006)[TvRip (XVID)] preview 0


==ORIGINAL UK AIR DATEs:==
1st june 2006
Episode 4377

==Description==
---------------------------------------------------------------------------------------------
[url]http://www.itnsource.com/shotlist//ITVProgs/2006/06/01/Y05244377A/?s=emmerdale+4377[/url]

At Butlers the Sugden's are clearing up after the party. Diane is telling Jack that Denise is Daz's mother and she has a right to see him. Jack tells her that she doesn't in his book and an approaching Victoria asks who doesn't and Jack tells her she is meant to be playing with Pye, she walks away with the dog. Katie tells them that Denise kept saying she had changed, Jack tells her that she has heard it all before and Victoria squats around a corner where she can listen. Katie asks him what she should say if she keeps turning up, Jack tells her to keep her mouth shut and that Denise will soon get fed up of trailing over from Manchester. Diane asks what they are going to tell Daz and Andy tells her 'nothing' what he doesn't know wont hurt him, Jack agrees that she's best off out of his life. Andy asks Jack to have a look at the bailer while he is there, they head off leaving Diane and Katie alone. Katie shows Diane the note that Denise left, she tells Diane that she doesn't know what to do with it. Victoria is watching and listening to everything.
In the village Len is chasing after Pearl, he tells her that she is supposed to come home for lunch instead of messing around with the work from home flowers. Pearl tells him that she is just getting the hang of it and he reminds her that they were going to send them back. Pearl tells him that if she doesn't get halfway through by that night then she will give up. Len tells her that she needs to eat and gives her a kiss. Pearl continues on her way.
In the Woolpack Paddy is telling Marlon how lovely Del is, he says he can't believe that she fancies him. Toni is behind the bar listening sulkily. Marlon comments that the first date went well then and Paddy agrees apart from Toni's little input. Marlon suggests that maybe she is a little bit jealous and he reiterates that he did everything except proposing and she didn't want him. He says this in Toni's direction. Marlon tells him that Donna has been in a mood since last night. He says that he can see her envious of Kelly having Rodney and his ever open cheque book, weighing up who has the best deal. Paddy doesn't help the situation by saying that Kelly has landed on her feet, he also tells Marlon that he might have bigger problems commenting that Donna treats Daisy like a baby. Paddy mouths the words quietly and a horrified Marlon says them out loud. Paddy tells him it is hardly surprising with Viv having fertility secretions, he tells Marlon that Donna's hormones will be in competition. Marlon is practically panic stricken when Del walks in and approaches their table. She goes to give Paddy a kiss and they have an awkward moment where they don't know which way to turn there heads, Del grabs his face and the two giggle, Toni's behind the bar fuming.

----------------------------------------------------------------------------------------------



[SIZE=1]

Format : MPEG-4 Visual
Format profile : Streaming [email protected]
Format settings, BVOP : Yes
Format settings, QPel : No
Format settings, GMC : No warppoints
Format settings, Matrix : Default
Muxing mode : Packed bitstream
Codec ID : XVID
Codec ID/Hint : XviD
Duration : 22mn 4s
Bit rate : 963 Kbps
Width : 640 pixels
Height : 384 pixels
Display aspect ratio : 1.667
Frame rate : 25.000 fps
Resolution : 24 bits
Colorimetry : 4:2:0
Scan type : Progressive
Bits/(Pixel*Frame) : 0.157
Stream size : 152 MiB (87%)
Writing library : XviD 1.0.3 (UTC 2004-12-20)

Format : MPEG Audio
Format version : Version 1
Format profile : Layer 3
Codec ID : 55
Codec ID/Hint : MP3
Duration : 22mn 4s
Bit rate mode : Variable
Bit rate : 132 Kbps
Nominal bit rate : 128 Kbps
Channel(s) : 2 channels
Sampling rate : 48.0 KHz
Resolution : 16 bits
Stream size : 20.8 MiB (12%)
Alignment : Aligned on interleaves
Interleave, duration : 24 ms (0.60 video frame)
Interleave, preload duration : 503 ms
Writing library : LAME3.90.
Encoding settings : ABR



[/SIZE]







===============================

Some of the other rather spiffing shows available now and always if you signup free @ www.TheBox.bz:

Comedy: The Office, Peep Show, Coupling, Chef, Fawlty Towers, Only Fools and Horses, The IT Crowd, Brass Eye, Nathan Barley, Young Ones, Monty Python, Blackadder, Alan Partridge, Father Ted, Coupling, Little Britain, Mr Bean, Extras, Green Wing, Mighty Boosh

Drama: Casualty, Holby City, The Bill, Hustle, Skins, Shameless, Ashes To Ashes

Entertainment: Faking It, Derren Brown, Scrapheap Challenge, Strictly Come Dancing, Wife Swap

Game/Quiz Shows: Whose Line Is It Anyway?, Have I Got News For You, Deal Or No Deal (UK), Q.I.

Education/Documentary: Planet Earth, Horizon, Panorama, Mark Thomas (Comedy) Product

Food: Hell's Kitchen, Jamie Oliver, The F Word, Kitchen Nightmares, Masterchef, Great British Menu, Gordon Ramsay's Cookalong

Home/Property/Garden: Property Ladder, How Clean Is Your House?, Changing Rooms, Grand Designs, Homes Under The Hammer, To Buy Or Not To Buy

Motoring: Top Gear, Fifth Gear

Music: Top Of The Pops, Jools Holland, Glastonbury

Reality: Big Brother, Celebrity Big Brother, I'm a Celebrity - Get Me Out of Here!, Any Dream Will Do, Grease, Pop Idol, Wife Swap, X Factor, Badger Or Bust, Apprentice UK, Dragons' Den, Britain's Got Talent

Sci-Fi: Doctor Who, Red Dwarf, Torchwood, Primeval

Sport: Football (Soccer), Cricket, Rugby, Snooker, Darts, Formula One (F1GP)

Soaps: Eastenders, Coronation Street, Emmerdale, Neighbours, Hollyoaks

Style/Fashion: What Not To Wear, Project Catwalk

Kids: Teletubbies, Blue Peter, Tikkabilla, Andy Pandy, Postman Pat, Shoebox Zoo, Brum, Bob The Builder, Young Dracula, Sarah Jane Adventures, Shaun The Sheep

related torrents

Torrent name

health leech seeds Size
 

comments (0)

Main Menu