UK

Classic Emmerdale (17th 21st April 2005)[TvRip (XVID)]

  • Download 5x Faster
  • Download torrent
  • Direct Download
  • Rate this torrent +  |  -
Classic Emmerdale (17th 21st April 2005)[TvRip (XVID)]

Free and Direct Download with Usenet.nl 300GB+ free


Torrent info

Name:Classic Emmerdale (17th 21st April 2005)[TvRip (XVID)]

Total Size: 876.17 MB

Magnet: Magnet Link

Seeds: 6

Leechers: 0

Stream: Watch Online @ Movie4u

Last Updated: 2010-08-03 18:59:25 (Update Now)

Torrent added: 2009-08-26 09:27:42





Torrent Files List


Classic Emmerdale 2005.04.17.TvRip.Xvid.(4026).Robinhood99.avi (Size: 876.17 MB) (Files: 5)

 Classic Emmerdale 2005.04.17.TvRip.Xvid.(4026).Robinhood99.avi

175.23 MB

 Classic Emmerdale 2005.04.18.TvRip.Xvid.(4027).Robinhood99.avi

175.21 MB

 Classic Emmerdale 2005.04.19.TvRip.Xvid.(4028).Robinhood99.avi

175.27 MB

 Classic Emmerdale 2005.04.20.TvRip.Xvid.(4029).Robinhood99.avi

175.21 MB

 Classic Emmerdale 2005.04.21.TvRip.Xvid.(4030).Robinhood99.avi

175.26 MB
 

Announce URL: http://www.thebox.bz:2710/00000000000000000000000000000000/announce

Torrent description

This torrent was uploaded from www.TheBox.bz (signup is open and free) - the home of all British TV



Classic Emmerdale (17th   21st April 2005)[TvRip (XVID)] preview 0



==ORIGINAL UK AIR DATEs:==
17th April - 21st April 2005
Episodes #4026 - #4030

==Description==
---------------------------------------------------------------------------------------------
Click Here For Link

Episode: 4,026 - Viv invites Paddy for a bite to eat and the pair end up sharing a passionate embrace in the flat - but their tender moment is shattered when a burning grill pan triggers the smoke alarm, forcing them to lie to Donna about what they were up to. As Nicola and Simon excitedly discuss their future together, Rodney finds himself left out in the cold, with only Lesley for company

----------------------------------------------------------------------------------------------

---------------------------------------------------------------------------------------------
Click Here For Link

Episode: 4,027 - Zoe throws a birthday party for Callum but when he fails to turn up she angrily confronts him, and is dismayed by his cynical attitude. Louise flirts shamelessly with Matthew, until her conscience prompts her to beat a hasty retreat and pour out her heart to Diane. Angry at being given the brush-off by Emily yet again, Paddy agrees to another fling with Viv, who sets about making a hotel booking - unaware Donna has realised something is afoot

----------------------------------------------------------------------------------------------

---------------------------------------------------------------------------------------------
Click Here For Link

Episode: 4,028 - Donna ropes Marlon into helping her discover the identity of her mother's lover, and when it looks like she's getting too close to the truth, he takes steps to throw her off the scent. Meanwhile, over at the hotel, a guilt-ridden Paddy has second thoughts and tells Viv he wants to end their affair - although it may already be too late to save his marriage with Emily

----------------------------------------------------------------------------------------------

---------------------------------------------------------------------------------------------
Click Here For Link

Episode: 4,029 - Paddy is overcome with guilt

----------------------------------------------------------------------------------------------

---------------------------------------------------------------------------------------------
Click Here For Link

Episode: 4,030 - A rude remark from Viv sends Emily storming out of the shop, and when she arrives home still fuming, Paddy mistakenly assumes she's learned the truth about his infidelity and blurts out a confession. Val catches Bob recording a video profile of himself in the hope of getting a date, and finds it all immensely amusing - then makes a move on him herself. Meanwhile, Dawn hits the roof after discovering how Scott came by the car he gave her, and does the right thing by returning it to its rightful o…

----------------------------------------------------------------------------------------------



Approx for each video
[SIZE=1]

Format : MPEG-4 Visual
Format profile : Streaming [email protected]
Format settings, BVOP : Yes
Format settings, QPel : No
Format settings, GMC : No warppoints
Format settings, Matrix : Default
Muxing mode : Packed bitstream
Codec ID : XVID
Codec ID/Hint : XviD
Duration : 22mn 18s
Bit rate : 952 Kbps
Width : 640 pixels
Height : 416 pixels
Display aspect ratio : 1.600
Frame rate : 25.000 fps
Resolution : 24 bits
Colorimetry : 4:2:0
Scan type : Progressive
Bits/(Pixel*Frame) : 0.149
Stream size : 152 MiB (87%)
Writing library : XviD 1.0.3 (UTC 2004-12-20)

Format : MPEG Audio
Format version : Version 1
Format profile : Layer 3
Codec ID : 55
Codec ID/Hint : MP3
Duration : 22mn 18s
Bit rate mode : Variable
Bit rate : 133 Kbps
Nominal bit rate : 128 Kbps
Channel(s) : 2 channels
Sampling rate : 48.0 KHz
Resolution : 16 bits
Stream size : 21.2 MiB (12%)
Alignment : Aligned on interleaves
Interleave, duration : 24 ms (0.60 video frame)
Interleave, preload duration : 503 ms
Writing library : LAME3.90.
Encoding settings : ABR


[/SIZE]



===============================

Some of the other rather spiffing shows available now and always if you signup free @ www.TheBox.bz:

Comedy: The Office, Peep Show, Coupling, Chef, Fawlty Towers, Only Fools and Horses, The IT Crowd, Brass Eye, Nathan Barley, Young Ones, Monty Python, Blackadder, Alan Partridge, Father Ted, Coupling, Little Britain, Mr Bean, Extras, Green Wing, Mighty Boosh

Drama: Casualty, Holby City, The Bill, Hustle, Skins, Shameless, Ashes To Ashes

Entertainment: Faking It, Derren Brown, Scrapheap Challenge, Strictly Come Dancing, Wife Swap

Game/Quiz Shows: Whose Line Is It Anyway?, Have I Got News For You, Deal Or No Deal (UK), Q.I.

Education/Documentary: Planet Earth, Horizon, Panorama, Mark Thomas (Comedy) Product

Food: Hell's Kitchen, Jamie Oliver, The F Word, Kitchen Nightmares, Masterchef, Great British Menu, Gordon Ramsay's Cookalong

Home/Property/Garden: Property Ladder, How Clean Is Your House?, Changing Rooms, Grand Designs, Homes Under The Hammer, To Buy Or Not To Buy

Motoring: Top Gear, Fifth Gear

Music: Top Of The Pops, Jools Holland, Glastonbury

Reality: Big Brother, Celebrity Big Brother, I'm a Celebrity - Get Me Out of Here!, Any Dream Will Do, Grease, Pop Idol, Wife Swap, X Factor, Badger Or Bust, Apprentice UK, Dragons' Den, Britain's Got Talent

Sci-Fi: Doctor Who, Red Dwarf, Torchwood, Primeval

Sport: Football (Soccer), Cricket, Rugby, Snooker, Darts, Formula One (F1GP)

Soaps: Eastenders, Coronation Street, Emmerdale, Neighbours, Hollyoaks

Style/Fashion: What Not To Wear, Project Catwalk

Kids: Teletubbies, Blue Peter, Tikkabilla, Andy Pandy, Postman Pat, Shoebox Zoo, Brum, Bob The Builder, Young Dracula, Sarah Jane Adventures, Shaun The Sheep

related torrents

Torrent name

health leech seeds Size
 

comments (0)

Main Menu