UK

Classic Emmerdale (14th September 1995)[VHSRip (XVID)]

  • Download 5x Faster
  • Download torrent
  • Direct Download
  • Rate this torrent +  |  -
Classic Emmerdale (14th September 1995)[VHSRip (XVID)]

Free and Direct Download with Usenet.nl 300GB+ free


Torrent info

Name:Classic Emmerdale (14th September 1995)[VHSRip (XVID)]

Total Size: 194.76 MB

Magnet: Magnet Link

Seeds: 0

Leechers: 0

Stream: Watch Online @ Movie4u

Last Updated: 2015-09-02 15:00:05 (Update Now)

Torrent added: 2009-08-26 09:27:38





Torrent Files List


Classic Emmerdale 1995.09.14.VHSRip.Xvid.(2009).Robinhood99.avi (Size: 194.76 MB) (Files: 1)

 Classic Emmerdale 1995.09.14.VHSRip.Xvid.(2009).Robinhood99.avi

194.76 MB
 

tracker

leech seeds
 

Torrent description

This torrent was uploaded from www.TheBox.bz (signup is open and free) - the home of all British TV



Classic Emmerdale (14th  September 1995)[VHSRip (XVID)] preview 0


==ORIGINAL UK AIR DATEs:==
14th September 1995
Episode(S) 2009

==Description==
---------------------------------------------------------------------------------------------
[url]http://www.itnsource.com/shotlist//ITVProgs/1995/09/14/Y05242009/?s=emmerdale+2009[/url]
Sam Dingle is convinced that Eric is dead after banging loudly on his front door & getting no response ; Alan Turner is offended when Sam says that he is worried because Eric Pollard is old (over 50) ; so is Alan ; Eric finally comes to the door looking the worse for wear ; this amuses Alan ; Sarah is still trying to encourage Jack to think about taking in bed & breakfast tourists ; he is not keen on the idea ; Zoe & Emma tease Linda about Biff ; Eric & Sam have breakfast together in the tearoom ; Sam is oblivious to Eric's sad mood & natters on about Barbara ; Terry is preparing to go & see Britt ; Alan tells him that he looks very smart ; he admits that he loves Britt, but is worried how she will react when she sees him ; Biff asks Linda to go ten pin bowling with him when he sees her at Home Farm ; he also covers for Dave when Kim asks where he is ; Jack & Frank discuss taking in tourists ; Jack hates to admit that Frank's attitude might be right - fleece the tourists ; Nick tries to muscle in on Biff's date, but Biff does not want to share Linda ; Frank & Zoe are chatting outside the Woolpack when Ken Adlington appears ; Linda runs into the Woolpack & tells Ned that there is going to be some trouble ; Frank & Adlington row as Adlington tries to goad Frank into attacking him again ; Frank tells him in front of the whole village " the only thing I regret is not hurting you more, breaking your arms maybe so you couldn't hit your wife ".
PART 2 - Ned & Jack both stand up to Ken Adlington & warn
him never to set foot in the village again ; he drives off
with his wife ; Zoe is scared that Frank will end up in
prison ; Kathy tells Dave that she is babysitting for Nick
; he offers to help her ; Nellie & Tina have a girly chat
about men ; Tina is depressed because she seems to have
put men off ; Nellie boasts about her special relationship
with Eric Pollard ; she is interested to hear from Sam that
Eric is no longer seeing the policewoman ; Dave can avoid
Kim no longer ; she demands that he meets her that night in
a wine bar in Hotten ; he tells her that he is babysitting with Kathy, but she just laughs & threatens that he may lose
his job if he doesn't turn up ; Zak is suspicious when
Nellie appears all dressed up & says that she is just going
to the shop for a pint of milk ; he smells her perfume &
tells her that she is not going anywhere now that " that
Casanova Pollard is on the rampage " ; Nellie likes his
jealousy ; they start to sing 'I Got You Babe ' to each
other, much to the embarrassment of Sam & Butch ; Linda
invites Nick to go bowling with her & Biff ; Terry arrives
back at the Woolpack ; the reunion has not gone well ; Britt
had forgotten that he was going ; Nellie & Zak have a
romantic chat ; Zak tells Nellie that she is " an 'eck of a
woman " ; Biff is fuming as Nick shows him up at the bowling
alley ; Linda seems to be impressed ; Tina & Butch try &
explain to Sam why they have left their mum & dad alone ; he
just doesn't understand ; Dave stands Kim up in favour of a
night in with Kathy ; Kim is furious.

---------------------------------------------------------------------------------------------




[SIZE=1]

Format : MPEG-4 Visual
Format profile : Streaming [email protected]
Format settings, BVOP : Yes
Format settings, QPel : No
Format settings, GMC : No warppoints
Format settings, Matrix : Default
Muxing mode : Packed bitstream
Codec ID : XVID
Codec ID/Hint : XviD
Duration : 24mn 24s
Bit rate : 967 Kbps
Width : 640 pixels
Height : 480 pixels
Display aspect ratio : 4/3
Frame rate : 25.000 fps
Resolution : 24 bits
Colorimetry : 4:2:0
Scan type : Progressive
Bits/(Pixel*Frame) : 0.126
Stream size : 169 MiB (87%)
Writing library : XviD 1.0.3 (UTC 2004-12-20)

Format : MPEG Audio
Format version : Version 1
Format profile : Layer 3
Codec ID : 55
Codec ID/Hint : MP3
Duration : 24mn 24s
Bit rate mode : Variable
Bit rate : 136 Kbps
Nominal bit rate : 128 Kbps
Channel(s) : 2 channels
Sampling rate : 48.0 KHz
Resolution : 16 bits
Stream size : 23.8 MiB (12%)
Alignment : Aligned on interleaves
Interleave, duration : 24 ms (0.60 video frame)
Interleave, preload duration : 332 ms
Writing library : LAME3.90.
Encoding settings : ABR


[/SIZE]







===============================

Some of the other rather spiffing shows available now and always if you signup free @ www.TheBox.bz:

Comedy: The Office, Peep Show, Coupling, Chef, Fawlty Towers, Only Fools and Horses, The IT Crowd, Brass Eye, Nathan Barley, Young Ones, Monty Python, Blackadder, Alan Partridge, Father Ted, Coupling, Little Britain, Mr Bean, Extras, Green Wing, Mighty Boosh

Drama: Casualty, Holby City, The Bill, Hustle, Skins, Shameless, Ashes To Ashes

Entertainment: Faking It, Derren Brown, Scrapheap Challenge, Strictly Come Dancing, Wife Swap

Game/Quiz Shows: Whose Line Is It Anyway?, Have I Got News For You, Deal Or No Deal (UK), Q.I.

Education/Documentary: Planet Earth, Horizon, Panorama, Mark Thomas (Comedy) Product

Food: Hell's Kitchen, Jamie Oliver, The F Word, Kitchen Nightmares, Masterchef, Great British Menu, Gordon Ramsay's Cookalong

Home/Property/Garden: Property Ladder, How Clean Is Your House?, Changing Rooms, Grand Designs, Homes Under The Hammer, To Buy Or Not To Buy

Motoring: Top Gear, Fifth Gear

Music: Top Of The Pops, Jools Holland, Glastonbury

Reality: Big Brother, Celebrity Big Brother, I'm a Celebrity - Get Me Out of Here!, Any Dream Will Do, Grease, Pop Idol, Wife Swap, X Factor, Badger Or Bust, Apprentice UK, Dragons' Den, Britain's Got Talent

Sci-Fi: Doctor Who, Red Dwarf, Torchwood, Primeval

Sport: Football (Soccer), Cricket, Rugby, Snooker, Darts, Formula One (F1GP)

Soaps: Eastenders, Coronation Street, Emmerdale, Neighbours, Hollyoaks

Style/Fashion: What Not To Wear, Project Catwalk

Kids: Teletubbies, Blue Peter, Tikkabilla, Andy Pandy, Postman Pat, Shoebox Zoo, Brum, Bob The Builder, Young Dracula, Sarah Jane Adventures, Shaun The Sheep

related torrents

Torrent name

health leech seeds Size
 

comments (0)

Main Menu