UK

Classic Emmerdale (13th May 2005)[TvRip (XVID)]

  • Download 5x Faster
  • Download torrent
  • Direct Download
  • Rate this torrent +  |  -
Classic Emmerdale (13th May 2005)[TvRip (XVID)]

Free and Direct Download with Usenet 300GB+ free


Torrent info

Name:Classic Emmerdale (13th May 2005)[TvRip (XVID)]

Total Size: 175.20 MB

Magnet: Magnet Link

Seeds: 0

Leechers: 0

Stream: Watch Online @ Movie4u

Last Updated: 2015-10-19 22:57:39 (Update Now)

Torrent added: 2009-08-26 09:27:36




Torrent Files List


Classic Emmerdale 2005.05.13.TvRip.Xvid.(4049).Robinhood99.avi (Size: 175.20 MB) (Files: 1)

 Classic Emmerdale 2005.05.13.TvRip.Xvid.(4049).Robinhood99.avi

175.20 MB
 

Announce URL:

Torrent description

This torrent was uploaded from www.TheBox.bz (signup is open and free) - the home of all British TV



Classic Emmerdale (13th May 2005)[TvRip (XVID)] preview 0



==ORIGINAL UK AIR DATEs:==
13 May - 2005
Episode #4049

==Description==
---------------------------------------------------------------------------------------------
[url]http://www.locatetv.com/tv/emmerdale/600883[/url]

Jack discovers the Kings have managed to get planning permission to build on Zoe and Mrs Kidderminster's land, and forms an alliance to stop them in their tracks - and send scheming Sadie packing. Elsewhere, Simon and Nicola decide they've had all they can take of Lesley's meddling, and new arrival Dr Adam Forsythe causes a stir when he is introduced to his patients

----------------------------------------------------------------------------------------------




[SIZE=1]

Format : MPEG-4 Visual
Format profile : Streaming [email protected]
Format settings, BVOP : Yes
Format settings, QPel : No
Format settings, GMC : No warppoints
Format settings, Matrix : Default
Muxing mode : Packed bitstream
Codec ID : XVID
Codec ID/Hint : XviD
Duration : 22mn 29s
Bit rate : 944 Kbps
Width : 640 pixels
Height : 384 pixels
Display aspect ratio : 1.667
Frame rate : 25.000 fps
Resolution : 24 bits
Colorimetry : 4:2:0
Scan type : Progressive
Bits/(Pixel*Frame) : 0.154
Stream size : 152 MiB (87%)
Writing library : XviD 1.0.3 (UTC 2004-12-20)

Format : MPEG Audio
Format version : Version 1
Format profile : Layer 3
Codec ID : 55
Codec ID/Hint : MP3
Duration : 22mn 29s
Bit rate mode : Variable
Bit rate : 132 Kbps
Nominal bit rate : 128 Kbps
Channel(s) : 2 channels
Sampling rate : 48.0 KHz
Resolution : 16 bits
Stream size : 21.2 MiB (12%)
Alignment : Aligned on interleaves
Interleave, duration : 24 ms (0.60 video frame)
Interleave, preload duration : 509 ms
Writing library : LAME3.90.
Encoding settings : ABR



[/SIZE]



===============================

Some of the other rather spiffing shows available now and always if you signup free @ www.TheBox.bz:

Comedy: The Office, Peep Show, Coupling, Chef, Fawlty Towers, Only Fools and Horses, The IT Crowd, Brass Eye, Nathan Barley, Young Ones, Monty Python, Blackadder, Alan Partridge, Father Ted, Coupling, Little Britain, Mr Bean, Extras, Green Wing, Mighty Boosh

Drama: Casualty, Holby City, The Bill, Hustle, Skins, Shameless, Ashes To Ashes

Entertainment: Faking It, Derren Brown, Scrapheap Challenge, Strictly Come Dancing, Wife Swap

Game/Quiz Shows: Whose Line Is It Anyway?, Have I Got News For You, Deal Or No Deal (UK), Q.I.

Education/Documentary: Planet Earth, Horizon, Panorama, Mark Thomas (Comedy) Product

Food: Hell's Kitchen, Jamie Oliver, The F Word, Kitchen Nightmares, Masterchef, Great British Menu, Gordon Ramsay's Cookalong

Home/Property/Garden: Property Ladder, How Clean Is Your House?, Changing Rooms, Grand Designs, Homes Under The Hammer, To Buy Or Not To Buy

Motoring: Top Gear, Fifth Gear

Music: Top Of The Pops, Jools Holland, Glastonbury

Reality: Big Brother, Celebrity Big Brother, I'm a Celebrity - Get Me Out of Here!, Any Dream Will Do, Grease, Pop Idol, Wife Swap, X Factor, Badger Or Bust, Apprentice UK, Dragons' Den, Britain's Got Talent

Sci-Fi: Doctor Who, Red Dwarf, Torchwood, Primeval

Sport: Football (Soccer), Cricket, Rugby, Snooker, Darts, Formula One (F1GP)

Soaps: Eastenders, Coronation Street, Emmerdale, Neighbours, Hollyoaks

Style/Fashion: What Not To Wear, Project Catwalk

Kids: Teletubbies, Blue Peter, Tikkabilla, Andy Pandy, Postman Pat, Shoebox Zoo, Brum, Bob The Builder, Young Dracula, Sarah Jane Adventures, Shaun The Sheep

related torrents

Torrent name

health leech seeds Size
 

comments (0)

Main Menu