UK

Classic Emmerdale (12th September 1995)[VHSRip (XVID)]

  • Download 5x Faster
  • Download torrent
  • Direct Download
  • Rate this torrent +  |  -

Torrent info

Name:Classic Emmerdale (12th September 1995)[VHSRip (XVID)]

Total Size: 194.76 MB

Magnet: Magnet Link

Seeds: 0

Leechers: 0

Stream: Watch Full Movie @ Movie4u

Last Updated: 2015-09-05 21:08:06 (Update Now)

Torrent added: 2009-08-26 09:27:35



VPN For Torrents

Torrent Files List


Classic Emmerdale 1995.09.12.VHSRip.Xvid.(2008).Robinhood99.avi (Size: 194.76 MB) (Files: 1)

 Classic Emmerdale 1995.09.12.VHSRip.Xvid.(2008).Robinhood99.avi

194.76 MB
 

tracker

leech seeds
 

Torrent description

This torrent was uploaded from www.TheBox.bz (signup is open and free) - the home of all British TV



Classic Emmerdale (12th  September 1995)[VHSRip (XVID)] preview 0


==ORIGINAL UK AIR DATEs:==
12th September 1995
Episode(S) 2008

==Description==
---------------------------------------------------------------------------------------------
[url]http://www.itnsource.com/shotlist//ITVProgs/1995/09/12/Y05242008/?s=emmerdale+2008[/url]

Nick is fretting as it is Alice's first day at school ; he tells Biff that she wanted to go in on her first day with Robert & Donna ; Nick quizzes Biff about Linda, but Biff is quite coy ; Dave warns him again not to hurt his sister ; Roy calls for Kelly & asks her if she wants to have tea at his house & watch a video ; Viv suggests 'The French Connection' ; Alan comments that they are starting young ; Linda is in the post office & Alan asks her about the posters that Emma was putting up in the village ; Betty has been telling everyone apparently ; Linda stays tightlipped ; Eric is annoyed to see that Harry Metcalfe is still parked outside his house waiting for Barbara to emerge ; she tells Eric that she will handle him ; Eric admits to Barbara that he has " done a few things that I am not particularly proud of " but that he really cares about her ; Zoe is still angry with Emma ; Linda tells them that Betty has spread the news about the posters ; Nellie is busy polishing her grandfather clock ; this makes Zak angry ; he wonders what she did to earn the clock in the first place ; Eric worries as Barbara gets in Harry's car & agrees to talk to him ; Zak insists that the clock has to go back to Eric Pollard ; Sam looks on helplessly as they load it into the van ; Rachel helps Kathy out in the tearoom when she is too busy to serve her ; Zoe admits to Sarah that she is having difficulty in trusting anyone ; Sarah can sympathise after her own experience of being gossiped about when Robert went missing ; Alan & Jan speculate about Ken Adlington ; Jan asks Emma
outright about him, but she just says mysteriously that the
poster says it all ; Margaret Adlington tears down a poster
in the village ; Zak Dingle nearly runs over Seth Armstrong
as he strolls over to the Woolpack ; he confronts Eric
about Nellie & the clock ; Eric tries to explain, but Zak
won't listen & threatens to hit the clock with a
sledgehammer.
PART 2 - Eric looks distraught as Zak smashes up the clock
; Sam apologises & says that he couldn't tell his dad the truth as it is not easy to explain things to him ; Zoe
arrives home to find Margaret Adlington confronting Emma
about the posters ; she insists that her husband has not
done anything ; Zoe wants to know why she won't say
anything to prevent her husband from attacking anyone else
; Betty protests via Seth about Rachel working in the
tearoom ; Kathy tells him that Rachel is only helping out &
that Betty has still got her job ; she also confides in
Rachel that she feels that she has finally met a man that
she can trust ; Nellie meets Eric in the post office ; he
cannot escape quickly enough after remembering Zak's
warning ; Margaret Adlington explains to Zoe & Emma that
she is too frightened of her husband to report the attack ;
he beats her up & she has no family or friends to escape to
; Biff meets Linda in the Woolpack ; Zak threatens Eric
again ; Zoe admits that she needs Emma to help her get
through her experience ; Ned complains to Alan about the
outbreak of romance in his family - Roy & Kelly, Linda &
Biff & Dave & Kathy ; Eric takes it for granted that
Barbara will move in with him now that she has got rid of
Harry ; he gets a shock when she admits that she has just really been using him to get back at her husband & that she
never intended for it to get too serious ; he is upset as
she walks out on him.
---------------------------------------------------------------------------------------------




[SIZE=1]

Format : MPEG-4 Visual
Format profile : Streaming [email protected]
Format settings, BVOP : Yes
Format settings, QPel : No
Format settings, GMC : No warppoints
Format settings, Matrix : Default
Muxing mode : Packed bitstream
Codec ID : XVID
Codec ID/Hint : XviD
Duration : 24mn 35s
Bit rate : 959 Kbps
Width : 640 pixels
Height : 480 pixels
Display aspect ratio : 4/3
Frame rate : 25.000 fps
Resolution : 24 bits
Colorimetry : 4:2:0
Scan type : Progressive
Bits/(Pixel*Frame) : 0.125
Stream size : 169 MiB (87%)
Writing library : XviD 1.0.3 (UTC 2004-12-20)

Format : MPEG Audio
Format version : Version 1
Format profile : Layer 3
Codec ID : 55
Codec ID/Hint : MP3
Duration : 24mn 35s
Bit rate mode : Variable
Bit rate : 136 Kbps
Nominal bit rate : 128 Kbps
Channel(s) : 2 channels
Sampling rate : 48.0 KHz
Resolution : 16 bits
Stream size : 23.9 MiB (12%)
Alignment : Aligned on interleaves
Interleave, duration : 24 ms (0.60 video frame)
Interleave, preload duration : 325 ms
Writing library : LAME3.90.
Encoding settings : ABR


[/SIZE]







===============================

Some of the other rather spiffing shows available now and always if you signup free @ www.TheBox.bz:

Comedy: The Office, Peep Show, Coupling, Chef, Fawlty Towers, Only Fools and Horses, The IT Crowd, Brass Eye, Nathan Barley, Young Ones, Monty Python, Blackadder, Alan Partridge, Father Ted, Coupling, Little Britain, Mr Bean, Extras, Green Wing, Mighty Boosh

Drama: Casualty, Holby City, The Bill, Hustle, Skins, Shameless, Ashes To Ashes

Entertainment: Faking It, Derren Brown, Scrapheap Challenge, Strictly Come Dancing, Wife Swap

Game/Quiz Shows: Whose Line Is It Anyway?, Have I Got News For You, Deal Or No Deal (UK), Q.I.

Education/Documentary: Planet Earth, Horizon, Panorama, Mark Thomas (Comedy) Product

Food: Hell's Kitchen, Jamie Oliver, The F Word, Kitchen Nightmares, Masterchef, Great British Menu, Gordon Ramsay's Cookalong

Home/Property/Garden: Property Ladder, How Clean Is Your House?, Changing Rooms, Grand Designs, Homes Under The Hammer, To Buy Or Not To Buy

Motoring: Top Gear, Fifth Gear

Music: Top Of The Pops, Jools Holland, Glastonbury

Reality: Big Brother, Celebrity Big Brother, I'm a Celebrity - Get Me Out of Here!, Any Dream Will Do, Grease, Pop Idol, Wife Swap, X Factor, Badger Or Bust, Apprentice UK, Dragons' Den, Britain's Got Talent

Sci-Fi: Doctor Who, Red Dwarf, Torchwood, Primeval

Sport: Football (Soccer), Cricket, Rugby, Snooker, Darts, Formula One (F1GP)

Soaps: Eastenders, Coronation Street, Emmerdale, Neighbours, Hollyoaks

Style/Fashion: What Not To Wear, Project Catwalk

Kids: Teletubbies, Blue Peter, Tikkabilla, Andy Pandy, Postman Pat, Shoebox Zoo, Brum, Bob The Builder, Young Dracula, Sarah Jane Adventures, Shaun The Sheep

related torrents

Torrent name

health leech seeds Size
 


comments (0)

Main Menu

 

script data-cfasync="false" src="//d2ghscazvn398x.cloudfront.net/?cshgd=690275">