UK

City Lights The Haunting of Willie Melvin (1990) [VHSRip (vob)]

  • Download 5x Faster
  • Download torrent
  • Direct Download
  • Rate this torrent +  |  -
City Lights The Haunting of Willie Melvin (1990) [VHSRip (vob)]

Free and Direct Download with Usenet.nl 300GB+ free


Torrent info

Name:City Lights The Haunting of Willie Melvin (1990) [VHSRip (vob)]

Total Size: 490.25 MB

Magnet: Magnet Link

Seeds: 1

Leechers: 0

Stream: Watch Online @ Movie4u

Last Updated: 2010-09-30 05:28:10 (Update Now)

Torrent added: 2009-08-26 09:26:39





Torrent Files List


City Lights - The Haunting of Willie Melvin - [VHSRip(vob)].VOB (Size: 490.25 MB) (Files: 1)

 City Lights - The Haunting of Willie Melvin - [VHSRip(vob)].VOB

490.25 MB
 

Announce URL: http://www.thebox.bz:2710/00000000000000000000000000000000/announce

Torrent description

This torrent was uploaded from www.TheBox.bz (signup is open and free) - the home of all British TV

City Lights - The Haunting of Willie Melvin.

Sorry I don't know the episode number or series. I can only assume it's
from season six, as this episode is not listed in the first five seasons.

In this episode Willie and his mum go to a remote haunted hotel for a
weekend break. This is the episode that was based on the City Lights play
that was shown in the late 80's.

Cast

Gerard Kelly as Willie Melvin
Andy Gray as Chancer
Dave Anderson as Mr McLelland
Iain McColl as Tam
Elaine C Smith as Irene
Jonathan Watson as Brian
Jan Wilson as Mum
Louise Beattie as Vicki

Format : MPEG-PS
File size : 490 MiB
Duration : 40mn 19s
Overall bit rate : 1 700 Kbps

Video
ID : 224 (0xE0)
Format : MPEG Video
Format version : Version 2
Format profile : [email protected]
Format settings, Matrix : Default
Duration : 40mn 19s
Bit rate mode : Constant
Bit rate : 1 500 Kbps
Width : 352 pixels
Height : 576 pixels
Display aspect ratio : 4/3
Frame rate : 25.000 fps
Standard : PAL
Colorimetry : 4:2:0
Scan type : Interlaced
Scan order : Top Field First
Bits/(Pixel*Frame) : 0.296
Stream size : 434 MiB (88%)

Audio
ID : 192 (0xC0)
Format : MPEG Audio
Format version : Version 1
Format profile : Layer 2
Duration : 40mn 18s
Bit rate mode : Constant
Bit rate : 128 Kbps
Channel(s) : 2 channels
Sampling rate : 48.0 KHz
Resolution : 16 bits
Video delay : -80ms
Stream size : 36.9 MiB (8%)

Menu
Format : DVD-Video


===============================

Some of the other rather spiffing shows available now and always if you signup free @ www.TheBox.bz:

Comedy: The Office, Peep Show, Coupling, Chef, Fawlty Towers, Only Fools and Horses, The IT Crowd, Brass Eye, Nathan Barley, Young Ones, Monty Python, Blackadder, Alan Partridge, Father Ted, Coupling, Little Britain, Mr Bean, Extras, Green Wing, Mighty Boosh

Drama: Casualty, Holby City, The Bill, Hustle, Skins, Shameless, Ashes To Ashes

Entertainment: Faking It, Derren Brown, Scrapheap Challenge, Strictly Come Dancing, Wife Swap

Game/Quiz Shows: Whose Line Is It Anyway?, Have I Got News For You, Deal Or No Deal (UK), Q.I.

Education/Documentary: Planet Earth, Horizon, Panorama, Mark Thomas (Comedy) Product

Food: Hell's Kitchen, Jamie Oliver, The F Word, Kitchen Nightmares, Masterchef, Great British Menu, Gordon Ramsay's Cookalong

Home/Property/Garden: Property Ladder, How Clean Is Your House?, Changing Rooms, Grand Designs, Homes Under The Hammer, To Buy Or Not To Buy

Motoring: Top Gear, Fifth Gear

Music: Top Of The Pops, Jools Holland, Glastonbury

Reality: Big Brother, Celebrity Big Brother, I'm a Celebrity - Get Me Out of Here!, Any Dream Will Do, Grease, Pop Idol, Wife Swap, X Factor, Badger Or Bust, Apprentice UK, Dragons' Den, Britain's Got Talent

Sci-Fi: Doctor Who, Red Dwarf, Torchwood, Primeval

Sport: Football (Soccer), Cricket, Rugby, Snooker, Darts, Formula One (F1GP)

Soaps: Eastenders, Coronation Street, Emmerdale, Neighbours, Hollyoaks

Style/Fashion: What Not To Wear, Project Catwalk

Kids: Teletubbies, Blue Peter, Tikkabilla, Andy Pandy, Postman Pat, Shoebox Zoo, Brum, Bob The Builder, Young Dracula, Sarah Jane Adventures, Shaun The Sheep

related torrents

Torrent name

health leech seeds Size
 

comments (0)

Main Menu