UK

Celebrity Shark Bait (2005) [TVRip(Mpg)]

  • Download 5x Faster
  • Download torrent
  • Direct Download
  • Rate this torrent +  |  -
Celebrity Shark Bait (2005) [TVRip(Mpg)]

Anonymous and Free Direct Download 300GB+


Torrent info

Name:Celebrity Shark Bait (2005) [TVRip(Mpg)]

Total Size: 1.14 GB

Magnet: Magnet Link

Seeds: 1

Leechers: 0

Stream: Watch Online @ Movie4u

Last Updated: 2010-10-06 02:41:51 (Update Now)

Torrent added: 2009-08-26 09:25:19



VPN For Torrents

Torrent Files List


Celebrity Shark Bait Part 1.mpg (Size: 1.14 GB) (Files: 4)

 Celebrity Shark Bait Part 1.mpg

200.50 MB

 Celebrity Shark Bait Part 2.mpg

338.46 MB

 Celebrity Shark Bait Part 3.mpg

443.99 MB

 Celebrity Shark Bait Part 4.mpg

187.38 MB
 

Announce URL: http://www.thebox.bz:2710/00000000000000000000000000000000/announce

Torrent description

This torrent was uploaded from www.TheBox.bz (signup is open and free) - the home of all British TV

On this show four celebrities will train in a two-day scuba diving course
off the coast of South Africa called in an area called shark alley. After
completing the course, the stars will be placed into a metal cage and
lowered into the water while a mixture of blood and fish is used to lure
the sharks. Actor Richard E Grant, comedienne Ruby Wax, former athlete
Colin Jackson and ex-Emmerdale star Amy Nuttall are the four celebrities.

Please note:- I had some issues with playback on VLC but worked great
with Media player. Maybe issue with my PC but just to let
you know.

I really enjoyed this, it took a lot of guts to get in the water this
these sharks!!!


All my uploads so far:-

http://thebox.bz/details.php?id=72740
EX-S: Richard Wilson: A Life Beyond The Grave (1992) [VHSRip (mpeg)

http://thebox.bz/details.php?id=72939
Chewin The Fat - Hogmanay Special - 2003 - [TVRip (Mpeg2.DAT)

http://thebox.bz/details.php?id=72940
Only An Excuse - Hogmanay Special 2003 - [TVRip (Mpeg2)].DAT)

http://thebox.bz/details.php?id=73113
Another Audience Wtih Ken Dodd - 2002 - [DVDRip(mp4)

http://thebox.bz/details.php?id=73314
Larsson the Legend - (2004) STV - [TVRip(Mpeg)

http://thebox.bz/details.php?id=73714
Chewin the Fat - Hogmanay Special - (2001) [DVDRip(mp4)

http://thebox.bz/details.php?id=73846
The Very Best of Scotch and Wry - (2006) - [DVDRip(Mpeg4)

http://thebox.bz/details.php?id=74058
Footballers Lives - Henrik Larsson (2004) [TVRip(mpg)

http://thebox.bz/details.php?id=74168
Celtic Heroes - (2004) [DVDRip(mp4)}.mp4

http://thebox.bz/details.php?id=74266
City Lights - The Haunting of Willie Melvin - [VHSRip(vob)].VOB

http://thebox.bz/details.php?id=74322
1949 - A Year To Remember - (1999) [VHSRip(vob)].VOB


Format : MPEG-PS
File size : 200 MiB
Duration : 8mn 33s
Overall bit rate : 3 276 Kbps

Video
ID : 224 (0xE0)
Format : MPEG Video
Format version : Version 2
Format profile : [email protected]
Format settings, Matrix : Default
Duration : 8mn 33s
Bit rate mode : Variable
Bit rate : 2 954 Kbps
Nominal bit rate : 15.0 Mbps
Width : 720 pixels
Height : 576 pixels
Display aspect ratio : 16/9
Frame rate : 25.000 fps
Standard : PAL
Colorimetry : 4:2:0
Scan type : Interlaced
Scan order : Top Field First
Bits/(Pixel*Frame) : 0.285
Stream size : 181 MiB (90%)

Audio
ID : 192 (0xC0)
Format : MPEG Audio
Format version : Version 1
Format profile : Layer 2
Duration : 8mn 33s
Bit rate mode : Constant
Bit rate : 192 Kbps
Channel(s) : 2 channels
Sampling rate : 48.0 KHz
Resolution : 16 bits
Video delay : -202ms
Stream size : 11.7 MiB (6%)

General
Complete name : C:\Documents and Settings\Administrator\Desktop\Celebrity Shark Bait - (2005) [TVRip(Mpg)]\Celebrity Shark Bait Part 2.mpg
Format : MPEG-PS
File size : 338 MiB
Duration : 14mn 4s
Overall bit rate : 3 362 Kbps

Video
ID : 224 (0xE0)
Format : MPEG Video
Format version : Version 2
Format profile : [email protected]
Format settings, Matrix : Default
Duration : 14mn 4s
Bit rate mode : Variable
Bit rate : 3 036 Kbps
Nominal bit rate : 15.0 Mbps
Width : 720 pixels
Height : 576 pixels
Display aspect ratio : 16/9
Frame rate : 25.000 fps
Standard : PAL
Colorimetry : 4:2:0
Scan type : Interlaced
Scan order : Top Field First
Bits/(Pixel*Frame) : 0.293
Stream size : 306 MiB (90%)

Audio
ID : 192 (0xC0)
Format : MPEG Audio
Format version : Version 1
Format profile : Layer 2
Duration : 14mn 4s
Bit rate mode : Constant
Bit rate : 192 Kbps
Channel(s) : 2 channels
Sampling rate : 48.0 KHz
Resolution : 16 bits
Video delay : -143ms
Stream size : 19.3 MiB (6%)

General
Complete name : C:\Documents and Settings\Administrator\Desktop\Celebrity Shark Bait - (2005) [TVRip(Mpg)]\Celebrity Shark Bait Part 3.mpg
Format : MPEG-PS
File size : 444 MiB
Duration : 17mn 30s
Overall bit rate : 3 545 Kbps

Video
ID : 224 (0xE0)
Format : MPEG Video
Format version : Version 2
Format profile : [email protected]
Format settings, Matrix : Default
Duration : 17mn 30s
Bit rate mode : Variable
Bit rate : 3 212 Kbps
Nominal bit rate : 15.0 Mbps
Width : 720 pixels
Height : 576 pixels
Display aspect ratio : 16/9
Frame rate : 25.000 fps
Standard : PAL
Colorimetry : 4:2:0
Scan type : Interlaced
Scan order : Top Field First
Bits/(Pixel*Frame) : 0.310
Stream size : 402 MiB (91%)

Audio
ID : 192 (0xC0)
Format : MPEG Audio
Format version : Version 1
Format profile : Layer 2
Duration : 17mn 30s
Bit rate mode : Constant
Bit rate : 192 Kbps
Channel(s) : 2 channels
Sampling rate : 48.0 KHz
Resolution : 16 bits
Video delay : -202ms
Stream size : 24.0 MiB (5%)

General
Complete name : C:\Documents and Settings\Administrator\Desktop\Celebrity Shark Bait - (2005) [TVRip(Mpg)]\Celebrity Shark Bait Part 4.mpg
Format : MPEG-PS
File size : 187 MiB
Duration : 7mn 16s
Overall bit rate : 3 597 Kbps

Video
ID : 224 (0xE0)
Format : MPEG Video
Format version : Version 2
Format profile : [email protected]
Format settings, Matrix : Default
Duration : 7mn 16s
Bit rate mode : Variable
Bit rate : 3 262 Kbps
Nominal bit rate : 15.0 Mbps
Width : 720 pixels
Height : 576 pixels
Display aspect ratio : 16/9
Frame rate : 25.000 fps
Standard : PAL
Colorimetry : 4:2:0
Scan type : Interlaced
Scan order : Top Field First
Bits/(Pixel*Frame) : 0.315
Stream size : 170 MiB (91%)

Audio
ID : 192 (0xC0)
Format : MPEG Audio
Format version : Version 1
Format profile : Layer 2
Duration : 7mn 16s
Bit rate mode : Constant
Bit rate : 192 Kbps
Channel(s) : 2 channels
Sampling rate : 48.0 KHz
Resolution : 16 bits
Video delay : -202ms
Stream size : 9.99 MiB (5%)

===============================

Some of the other rather spiffing shows available now and always if you signup free @ www.TheBox.bz:

Comedy: The Office, Peep Show, Coupling, Chef, Fawlty Towers, Only Fools and Horses, The IT Crowd, Brass Eye, Nathan Barley, Young Ones, Monty Python, Blackadder, Alan Partridge, Father Ted, Coupling, Little Britain, Mr Bean, Extras, Green Wing, Mighty Boosh

Drama: Casualty, Holby City, The Bill, Hustle, Skins, Shameless, Ashes To Ashes

Entertainment: Faking It, Derren Brown, Scrapheap Challenge, Strictly Come Dancing, Wife Swap

Game/Quiz Shows: Whose Line Is It Anyway?, Have I Got News For You, Deal Or No Deal (UK), Q.I.

Education/Documentary: Planet Earth, Horizon, Panorama, Mark Thomas (Comedy) Product

Food: Hell's Kitchen, Jamie Oliver, The F Word, Kitchen Nightmares, Masterchef, Great British Menu, Gordon Ramsay's Cookalong

Home/Property/Garden: Property Ladder, How Clean Is Your House?, Changing Rooms, Grand Designs, Homes Under The Hammer, To Buy Or Not To Buy

Motoring: Top Gear, Fifth Gear

Music: Top Of The Pops, Jools Holland, Glastonbury

Reality: Big Brother, Celebrity Big Brother, I'm a Celebrity - Get Me Out of Here!, Any Dream Will Do, Grease, Pop Idol, Wife Swap, X Factor, Badger Or Bust, Apprentice UK, Dragons' Den, Britain's Got Talent

Sci-Fi: Doctor Who, Red Dwarf, Torchwood, Primeval

Sport: Football (Soccer), Cricket, Rugby, Snooker, Darts, Formula One (F1GP)

Soaps: Eastenders, Coronation Street, Emmerdale, Neighbours, Hollyoaks

Style/Fashion: What Not To Wear, Project Catwalk

Kids: Teletubbies, Blue Peter, Tikkabilla, Andy Pandy, Postman Pat, Shoebox Zoo, Brum, Bob The Builder, Young Dracula, Sarah Jane Adventures, Shaun The Sheep

related torrents

Torrent name

health leech seeds Size
 


comments (0)

Main Menu