UK

Call Me Mister S01E01 Longshot(5th September 1986) [VHSRip (DivX)] SM Staff Approved

  • Download 5x Faster
  • Download torrent
  • Direct Download
  • Rate this torrent +  |  -

Torrent info

Name:Call Me Mister S01E01 Longshot(5th September 1986) [VHSRip (DivX)] SM Staff Approved

Total Size: 452.17 MB

Magnet: Magnet Link

Seeds: 4

Leechers: 0

Stream: Watch Online @ Movie4u

Last Updated: 2010-12-28 02:30:28 (Update Now)

Torrent added: 2009-08-26 09:23:03




Torrent Files List


Call Me Mister S01E01 Longshot.avi (Size: 452.17 MB) (Files: 1)

 Call Me Mister S01E01 Longshot.avi

452.17 MB
 

Announce URL: http://www.thebox.bz:2710/00000000000000000000000000000000/announce

Torrent description

This torrent was uploaded from www.TheBox.bz (signup is open and free) - the home of all British TV

Call Me Mister" (1986)

SM Staff Approved

epIsODE grabbed from,
alt.binaries.tvseries
upped by [email protected] (Yenc-PP-A&A) :O)

VHS-rip
** Hardcoded Norwegian subtitles **


Australian ex-cop Jack Bartholomew (Bisley) goes to Britain when he discovers he is heir to a family title,
not really getting on with his newly discovered family he starts working as a private Detective.


http://www.imdb.com/title/tt0120932/

Steve Bisley ... Jack Bartholomew / ... (11 episodes, 1986)
Dermot Crowley ... Det. Sgt. McBride (11 episodes, 1986)
David Bamber ... Fred Hurley (10 episodes, 1986)
Dulice Liecier ... Julie Columbus (10 episodes, 1986)
Haydn Gwynne ... Bridget Bartholomew (7 episodes, 1986)
Rupert Frazer ... Philip Bartholomew (7 episodes, 1986)

Season 1, Episode 1: Longshot (the first 5 or so minutes are missing)
Original Air Date—5 September 1986

Video
Format : MPEG-4 Visual
Format settings, BVOP : Yes
Format settings, QPel : No
Format settings, GMC : No warppoints
Format settings, Matrix : Default (H.263)
Muxing mode : Packed bitstream
Codec ID : DX50
Codec ID/Hint : DivX 5
Duration : 1h 4mn
Bit rate : 720 Kbps
Width : 640 pixels
Height : 480 pixels
Display aspect ratio : 4/3
frame rate : 25.000 fps
Resolution : 24 bits
Colorimetry : 4:2:0
Scan type : Progressive
Bits/(Pixel*frame) : 0.094
Stream size : 330 MiB (73%)
Title : Video
Writing library : DivX 2151

Audio
Format : AC-3
Format/Info : Audio Coding 3
Codec ID : 2000
Duration : 1h 4mn
Bit rate mode : Constant
Bit rate : 256 Kbps
Channel(s) : 2 channels
Channel positions : L R
Sampling rate : 48.0 KHz
Stream size : 117 MiB (26%)
Alignment : Split accross interleaves
Interleave, duration : 40 ms (1.00 video frame)
Interleave, preload duration : 500 ms
Title : Audio

http://thebox.bz/forums_post.php?action=reply&topicid=21044


===============================

Some of the other rather spiffing shows available now and always if you signup free @ www.TheBox.bz:

Comedy: The Office, Peep Show, Coupling, Chef, Fawlty Towers, Only Fools and Horses, The IT Crowd, Brass Eye, Nathan Barley, Young Ones, Monty Python, Blackadder, Alan Partridge, Father Ted, Coupling, Little Britain, Mr Bean, Extras, Green Wing, Mighty Boosh

Drama: Casualty, Holby City, The Bill, Hustle, Skins, Shameless, Ashes To Ashes

Entertainment: Faking It, Derren Brown, Scrapheap Challenge, Strictly Come Dancing, Wife Swap

Game/Quiz Shows: Whose Line Is It Anyway?, Have I Got News For You, Deal Or No Deal (UK), Q.I.

Education/Documentary: Planet Earth, Horizon, Panorama, Mark Thomas (Comedy) Product

Food: Hell's Kitchen, Jamie Oliver, The F Word, Kitchen Nightmares, Masterchef, Great British Menu, Gordon Ramsay's Cookalong

Home/Property/Garden: Property Ladder, How Clean Is Your House?, Changing Rooms, Grand Designs, Homes Under The Hammer, To Buy Or Not To Buy

Motoring: Top Gear, Fifth Gear

Music: Top Of The Pops, Jools Holland, Glastonbury

Reality: Big Brother, Celebrity Big Brother, I'm a Celebrity - Get Me Out of Here!, Any Dream Will Do, Grease, Pop Idol, Wife Swap, X Factor, Badger Or Bust, Apprentice UK, Dragons' Den, Britain's Got Talent

Sci-Fi: Doctor Who, Red Dwarf, Torchwood, Primeval

Sport: Football (Soccer), Cricket, Rugby, Snooker, Darts, Formula One (F1GP)

Soaps: Eastenders, Coronation Street, Emmerdale, Neighbours, Hollyoaks

Style/Fashion: What Not To Wear, Project Catwalk

Kids: Teletubbies, Blue Peter, Tikkabilla, Andy Pandy, Postman Pat, Shoebox Zoo, Brum, Bob The Builder, Young Dracula, Sarah Jane Adventures, Shaun The Sheep

related torrents

Torrent name

health leech seeds Size
 

comments (0)

Main Menu