UK

Boatyard (Keryl) Part 2 of 2 (2005) [TVRip (DivX)]

  • Download 5x Faster
  • Download torrent
  • Direct Download
  • Rate this torrent +  |  -
Boatyard (Keryl) Part 2 of 2 (2005) [TVRip (DivX)]

Free and Direct Download with Usenet.nl 300GB+ free


Torrent info

Name:Boatyard (Keryl) Part 2 of 2 (2005) [TVRip (DivX)]

Total Size: 301.09 MB

Magnet: Magnet Link

Seeds: 0

Leechers: 0

Stream: Watch Online @ Movie4u

Last Updated: 2014-03-08 12:23:07 (Update Now)

Torrent added: 2009-08-26 09:16:53





Torrent Files List


Boatyard 2.AVI (Size: 301.09 MB) (Files: 1)

 Boatyard 2.AVI

301.09 MB
 

Announce URL:

Torrent description

This torrent was uploaded from www.TheBox.bz (signup is open and free) - the home of all British TV

Part two of two. Simon Woodhouse continues his project to get Keryl back on the water, but has to enlist the help of his friends in order to secure completion

Shown 21st May 2009 Discovery Real Time (UK)

Boatyard (Keryl)   Part 2 of 2 (2005) [TVRip (DivX)] preview 0

Tom Cunliffe presents a series about the tribulations and triumphs of five ordinary guys tackling major boat renovations on limited budgets. Their vessels vary from a 1930s classic yacht to a jet-craft of unknown origin. Venues include a Yorkshire council estate, a Norfolk farmyard and the legendary Eel Pie Island. The owners are an eclectic bunch of characters too. There’s a north-country ‘man-who-can’ with a scrapyard in his back garden, two brothers-in-law testing their family ties alongside their technical skills, a company director with the soul of an engineer, a Thames river-man and a sailing chef. All find their fortitude plumbed to the depths, and Cunliffe ties the whole thing together in his own inimitable style. The ten half-hour episodes run back-to-back in pairs so you can follow a complete project across an hour. After this, nobody could imagine boats are for the privileged few again.

General
Format : AVI
Format/Info : Audio Video Interleave
File size : 301 MiB
Duration : 23mn 48s
Overall bit rate : 1 769 Kbps

Video
Format : MPEG-4 Visual
Format settings, BVOP : Yes
Format settings, QPel : No
Format settings, GMC : No warppoints
Format settings, Matrix : Default (H.263)
Codec ID : DIVX
Codec ID/Info : Project Mayo
Codec ID/Hint : DivX 4
Duration : 23mn 48s
Bit rate : 1 501 Kbps
Width : 512 pixels
Height : 384 pixels
Display aspect ratio : 4/3
Frame rate : 25.000 fps
Resolution : 24 bits
Scan type : Progressive
Bits/(Pixel*Frame) : 0.305
Stream size : 256 MiB (85%)

Audio
Format : ADPCM
Codec ID : 11
Codec ID/Info : Intel ADPCM
Duration : 23mn 48s
Bit rate mode : Constant
Bit rate : 256 Kbps
Channel(s) : 2 channels
Sampling rate : 32.0 KHz
Resolution : 4 bits
Stream size : 43.9 MiB (15%)
Interleave, duration : 40 ms (1.00 video frame)



===============================

Some of the other rather spiffing shows available now and always if you signup free @ www.TheBox.bz:

Comedy: The Office, Peep Show, Coupling, Chef, Fawlty Towers, Only Fools and Horses, The IT Crowd, Brass Eye, Nathan Barley, Young Ones, Monty Python, Blackadder, Alan Partridge, Father Ted, Coupling, Little Britain, Mr Bean, Extras, Green Wing, Mighty Boosh

Drama: Casualty, Holby City, The Bill, Hustle, Skins, Shameless, Ashes To Ashes

Entertainment: Faking It, Derren Brown, Scrapheap Challenge, Strictly Come Dancing, Wife Swap

Game/Quiz Shows: Whose Line Is It Anyway?, Have I Got News For You, Deal Or No Deal (UK), Q.I.

Education/Documentary: Planet Earth, Horizon, Panorama, Mark Thomas (Comedy) Product

Food: Hell's Kitchen, Jamie Oliver, The F Word, Kitchen Nightmares, Masterchef, Great British Menu, Gordon Ramsay's Cookalong

Home/Property/Garden: Property Ladder, How Clean Is Your House?, Changing Rooms, Grand Designs, Homes Under The Hammer, To Buy Or Not To Buy

Motoring: Top Gear, Fifth Gear

Music: Top Of The Pops, Jools Holland, Glastonbury

Reality: Big Brother, Celebrity Big Brother, I'm a Celebrity - Get Me Out of Here!, Any Dream Will Do, Grease, Pop Idol, Wife Swap, X Factor, Badger Or Bust, Apprentice UK, Dragons' Den, Britain's Got Talent

Sci-Fi: Doctor Who, Red Dwarf, Torchwood, Primeval

Sport: Football (Soccer), Cricket, Rugby, Snooker, Darts, Formula One (F1GP)

Soaps: Eastenders, Coronation Street, Emmerdale, Neighbours, Hollyoaks

Style/Fashion: What Not To Wear, Project Catwalk

Kids: Teletubbies, Blue Peter, Tikkabilla, Andy Pandy, Postman Pat, Shoebox Zoo, Brum, Bob The Builder, Young Dracula, Sarah Jane Adventures, Shaun The Sheep

related torrents

Torrent name

health leech seeds Size
 

comments (0)

Main Menu