Other

UFC 101 Declaration DSR XviD XWT[tntvillage scambioetico org]

  • Download 5x Faster
  • Download torrent
  • Direct Download
  • Rate this torrent +  |  -
UFC 101 Declaration DSR XviD XWT[tntvillage scambioetico org]

Free and Direct Download with Usenet.nl 300GB+ free


Torrent info

Name:UFC 101 Declaration DSR XviD XWT[tntvillage scambioetico org]

Total Size: 1.33 GB

Magnet: Magnet Link

Seeds: 44

Leechers: 7

Stream: Watch Online @ Movie4u

Last Updated: 2010-12-20 04:07:27 (Update Now)

Torrent added: 2009-08-26 08:13:53





Torrent Files List


UFC.101.Declaration.DSR.XviD-XWT.avi (Size: 1.33 GB) (Files: 1)

 UFC.101.Declaration.DSR.XviD-XWT.avi

1.33 GB
 

Announce URL: http://tracker.tntvillage.scambioetico.org:2710/announce

Torrent description

[align=center]UFC 101 Declaration DSR XviD XWT[tntvillage scambioetico org] preview 4


[SIZE=17][color=#FF0000]UFC 101: Declarartion[/SIZE][/color]



UFC 101 Declaration DSR XviD XWT[tntvillage scambioetico org] preview 0


UFC 101 Declaration DSR XviD XWT[tntvillage scambioetico org] preview 1



UFC 101: Declaration
Data: 09 Agosto 2009
Localit?: Wachovia Center
Citt?: Philadelphia, Pennsylvania




Preliminary card

* Welterweight bout: Jesse Lennox vs. Danillo Villefort



* Lightweight bout: George Sotiropoulos vs. George Roop


* Welterweight bout: Matt Riddle vs. Dan Cramer


* Middleweight bout: Thales Leites vs. Alessio Sakara


* Welterweight bout: Tamdan McCrory vs. John Howard


Main card

* Lightweight bout: Josh Neer vs. Kurt Pellegrino


* Middleweight bout: Kendall Grove vs. Ricardo Almeida


* Welterweight bout: Amir Sadollah vs. Johny Hendricks


* Welterweight bout: Shane Nelson vs. Aaron Riley


* Light Heavyweight bout: Anderson Silva vs. Forrest Griffin


* Lightweight Championship bout: BJ Penn ? vs. Kenny Florian




UFC 101 Declaration DSR XviD XWT[tntvillage scambioetico org] preview 5


[/align]


General
Complete name : C:\UFC.101.Declaration.DSR.XviD-XWT.avi
Format : AVI
Format/Info : Audio Video Interleave
File size : 1.33 GiB
Duration : 2h 43mn
Overall bit rate : 1 164 Kbps

Video
Format : MPEG-4 Visual
Format profile : Streaming [email protected]
Format settings, BVOP : Yes
Format settings, QPel : No
Format settings, GMC : No warppoints
Format settings, Matrix : Default
Codec ID : XVID
Codec ID/Hint : XviD
Duration : 2h 43mn
Bit rate : 1 023 Kbps
Width : 640 pixels
Height : 368 pixels
Display aspect ratio : 16/9
Frame rate : 25.000 fps
Resolution : 24 bits
Colorimetry : 4:2:0
Scan type : Progressive
Bits/(Pixel*Frame) : 0.174
Stream size : 1.17 GiB (88%)
Writing library : XviD 1.1.2 (UTC 2006-11-01)

Audio
Format : MPEG Audio
Format version : Version 1
Format profile : Layer 3
Codec ID : 55
Codec ID/Hint : MP3
Duration : 2h 43mn
Bit rate mode : Constant
Bit rate : 128 Kbps
Channel(s) : 2 channels
Sampling rate : 44.1 KHz
Resolution : 16 bits
Stream size : 150 MiB (11%)
Alignment : Aligned on interleaves
Interleave, duration : 26 ms (0.65 video frame)
Interleave, preload duration : 809 ms


[align=center]UFC 101 Declaration DSR XviD XWT[tntvillage scambioetico org] preview 6


UFC 101 Declaration DSR XviD XWT[tntvillage scambioetico org] preview 2


[SIZE=8][color=#990000]max74 24/7 minimo 3000 KB/s[/SIZE][/color]


[SIZE=8][color=#990000]Michy1983 24/7 25000 KB/s[/SIZE][/color]

UFC 101 Declaration DSR XviD XWT[tntvillage scambioetico org] preview 3


[SIZE=4][color=#000099]!!GRAZIE AD XWT per il File!![/SIZE][/color][/align]

related torrents

Torrent name

health leech seeds Size
 

comments (0)

Main Menu