Action

Hancock (2008) 1337x By {Noir}

  • Download 5x Faster
  • Download torrent
  • Direct Download
  • Rate this torrent +  |  -
Hancock (2008) 1337x By {Noir}

Anonymous and Free Direct Download 300GB+


Torrent info

Name:Hancock (2008) 1337x By {Noir}

Total Size: 707.57 MB

Magnet: Magnet Link

Seeds: 0

Leechers: 0

Stream: Watch Online @ Movie4u

Last Updated: 2010-07-29 08:37:43 (Update Now)

Torrent added: 2008-08-01 16:54:15



VPN For Torrents

Torrent Files List


1337x.Org.txt (Size: 707.57 MB) (Files: 3)

 1337x.Org.txt

0.03 KB

 Hancock (2008) [1337x] By {Noir}.avi

707.57 MB

 Noir.nfo

4.71 KB
 

Announce URL: http://genesis.1337x.org:1337/announce

Torrent description

Hancock (2008) 1337x By {Noir} preview 0

Screenshots

Hancock (2008) 1337x By {Noir} preview 1

Hancock (2008) 1337x By {Noir} preview 2

Hancock (2008) 1337x By {Noir} preview 3

Hancock (2008) 1337x By {Noir} preview 4

_____________________________________________________________________________
▓▓▓▓▓▓
▓█████▓ ▓▓▓▓
▓██████▓ ▓▓███▓
▓▓██████▓ ▓████▓▓▓▓▓▓
▓██████▓ ▓██▒█▓▓███▓▓ ▓▓▓▓▓▓▓▓▓▓▓▓▓
▓██▒████▓ ▓██▒█▓██████▓▓███▓███▓███▓▓
▓██▒▒████▓ ▓██▒███▒▒▒▒██▓████████████▓
▓██▒▒▒▒███▓ ▓██▒██▒▒▒▒▒▒███▒▒▒██▒█▒▒▒██▓▓
▓██▒▒██▒▒██▓▓██▒██▒▒█▒▒▒▒███████▒▒▒▒▒▒██▓
▓██▒▒███▒▒██▓██▒██▒█▓█▒▒▒██▒▒▒██▒▒██▒▒▒█▓
▓██▒▒████▒▒████▒██▒█▓█▒▒▒██▒▒▒██▒▒███▒██▓
▓██▒▒█▓███▒▒███▒██▒▒█▒▒▒▒██▒▒▒██▒▒██████▓
▓██▒▒█▓▓███▒▒██▒██▒▒▒▒▒▒▒██▒▒▒██▒▒██▓███▓
▓▓██▒▒█▓ ▓███▒▒█▒██▒▒▒▒▒▒▒███████▒▒██▓▓▓▓▓
▓▓███▒▒█▓ ▓███▒▒▒███▒▒▒▒▒██▓▓▓▓██▒▒██▓
▓████▒▒█▓ ▓███▒▒█████████▓▓ ▓██▒▒██▓
▓████▒▒█▓ ▓███▒█▓██████▓▓▓ ▓██████▓
▓███████▓ ▓▓████▓▓▓▓▓▓▓▓ ▓▓▓▓▓▓▓▓
▓▓▓▓▓▓▓▓▓ ▓▓▓▓▓
_____________________________________________________________________________



*******************************************************************************
Hancock (2008)
*******************************************************************************

-------------------------------------------------------------------------------
General Information
-------------------------------------------------------------------------------
Type : Movie
Format : AVI
Format/Info : Audio Video Interleave
File size : 708 MiB
Duration : 1h 21mn
Subtitles : None
Source : Dvd R5
Genre : Action | Comedy | Drama | Fantasy
IMDB Link : http://www.imdb.com/title/tt0448157/
Rating : 6.8/10

Video
Format : MPEG-4 Visual
Format settings, BVOP : Yes
Format settings, QPel : No
Format settings, GMC : No warppoints
Format settings, Matrix : Default
Muxing mode : Packet Bitstream
Codec ID : DX50/60
Codec ID/Hint : DivX
Duration : 1h 21mn
Bit rate : 1073 Kbps
Width : 608 pixels
Height : 320 pixels
Display aspect ratio : 1.900
Frame rate : 25.000 fps
Resolution : 8 bits
Colorimetry : 4:2:0
Scan type : Progressive
Bits/(Pixel*Frame) : 0.221
Stream size : 627 MiB (89%)

Audio
Format : MPEG Audio
Format version : Version 1
Format profile : Layer 3
Codec ID : 55
Codec ID/Hint : MP3
Duration : 1h 21mn
Bit rate mode : Constant
Bit rate : 128 Kbps
Minimum bit rate : 128 Kbps
Channel(s) : 2 channels
Sampling rate : 48.0 KHz
Resolution : 16 bits
Stream size : 74.8 MiB (11%)
Alignment : Aligned on interleaves
Interleave, duration : 40 ms (1.00 video frame)
Interleave, preload duration : 504 ms
Writing library : LAME3.97
Encoding settings : CBR
-------------------------------------------------------------------------------
Description
-------------------------------------------------------------------------------
John Hancock (Will Smith) is an alcoholic man with superhuman powers,
including supersonic flight, invulnerability, immortality, and
super-strength. Though he uses his powers to stop criminals in his
current residence of Los Angeles, his activity inadvertently causes
millions of dollars in property damage due to his constant intoxication.
As a result, he is routinely jeered at the crime scenes. Hancock also
ignores court subpoenas from the city of Los Angeles to address the
property damage he has caused
-------------------------------------------------------------------------------
Post Information
-------------------------------------------------------------------------------
Posted by............: Noir
Posted on............: 8/01/2008

Hancock (2008) 1337x By {Noir} preview 5

related torrents

Torrent name

health leech seeds Size
 


comments (0)

Main Menu