TV - Other

20 to 1 Celebrity Sins and Sensations Aussie TV Show 25 08 2009

  • Download 5x Faster
  • Download torrent
  • Direct Download
  • Rate this torrent +  |  -
20 to 1 Celebrity Sins and Sensations Aussie TV Show 25 08 2009

Free and Direct Download with Usenet 300GB+ free


Torrent info

Name:20 to 1 Celebrity Sins and Sensations Aussie TV Show 25 08 2009

Total Size: 519.40 MB

Magnet: Magnet Link

Seeds: 1

Leechers: 1

Stream: Watch Online @ Movie4u

Last Updated: 2010-09-05 16:55:02 (Update Now)

Torrent added: 2009-08-26 02:37:27




Torrent Files List


20 to 1 - Celebrity Sins and Sensations.avi (Size: 519.40 MB) (Files: 6)

 20 to 1 - Celebrity Sins and Sensations.avi

519.00 MB

 poster.png

289.25 KB

 201.jpg

48.13 KB

 202.jpg

30.94 KB

 204.jpg

22.24 KB

 203.jpg

22.18 KB
 

Announce URL: http://greekadiko.biz:2710/491e8fcb5d41140251f3a2ef47f33583/announce

Torrent description

20 to 1   Celebrity Sins and Sensations   Aussie TV Show   25 08 2009 preview 0



You think celebrities are good? Have a look this video!


General
Complete name : 20 to 1 - Celebrity Sins and Sensations.avi
Format : AVI
Format/Info : Audio Video Interleave
File size : 519 MiB
Duration : 43mn 25s
Overall bit rate : 1 671 Kbps
Writing application : VirtualDubMod 1.5.4.1 (build 2178/release)
Writing library : VirtualDubMod build 2178/release

Video
ID : 0
Format : MPEG-4 Visual
Format profile : Streaming [email protected]
Format settings, BVOP : Yes
Format settings, QPel : No
Format settings, GMC : No warppoints
Format settings, Matrix : Default (H.263)
Muxing mode : Packed bitstream
Codec ID : XVID
Codec ID/Hint : XviD
Duration : 43mn 25s
Bit rate : 1 472 Kbps
Width : 720 pixels
Height : 416 pixels
Display aspect ratio : 16/9
Frame rate : 25.000 fps
Resolution : 24 bits
Colorimetry : 4:2:0
Scan type : Progressive
Bits/(Pixel*Frame) : 0.197
Stream size : 457 MiB (88%)
Writing library : XviD 1.2.1 (UTC 2008-12-04)

Audio
ID : 1
Format : MPEG Audio
Format version : Version 1
Format profile : Layer 3
Codec ID : 55
Codec ID/Hint : MP3
Duration : 43mn 25s
Bit rate mode : Constant
Bit rate : 192 Kbps
Channel(s) : 2 channels
Sampling rate : 44.1 KHz
Resolution : 16 bits
Stream size : 59.6 MiB (11%)
Alignment : Split accross interleaves
Interleave, duration : 80 ms (2.00 video frames)
Interleave, preload duration : 500 ms





Screenshots:

20 to 1   Celebrity Sins and Sensations   Aussie TV Show   25 08 2009 preview 1

20 to 1   Celebrity Sins and Sensations   Aussie TV Show   25 08 2009 preview 2

20 to 1   Celebrity Sins and Sensations   Aussie TV Show   25 08 2009 preview 3

related torrents

Torrent name

health leech seeds Size
 

comments (0)

Main Menu