Adventure

[email protected] of The L0st 2009 DvDRiP XViD STG FATAL

  • Download 5x Faster
  • Download torrent
  • Direct Download
  • Rate this torrent +  |  -

Torrent info

Name:[email protected] of The L0st 2009 DvDRiP XViD STG FATAL

Total Size: 686.12 MB

Magnet: Magnet Link

Seeds: 0

Leechers: 0

Stream: Watch Online @ Movie4u

Last Updated: 2009-11-23 08:57:13 (Update Now)

Torrent added: 2009-08-26 01:34:17



VPN For Torrents

Torrent Files List


Land.Of.The.Lost.(2009).avi (Size: 686.12 MB) (Files: 2)

 Land.Of.The.Lost.(2009).avi

686.12 MB

 Torrent downloaded from Demonoid.com.txt

0.05 KB
 

Announce URL: http://open.tracker.thepiratebay.org/announce

Torrent description

Land Ov The L0st 2009 DvDRiP XViD - STG - FATAL

-------------------------------------------------
F I L E - I N F O
-------------------------------------------------
File Name : Land Of The Lost[2009]{Proper}DvDrip-LW
Type : Movie
Format : AVI
File Size : 700 MB
Duration : 01:37:25
Language : English
Source : DvD
Subtitles : None
Genre : Adventure | Comedy | Sci-Fi
IMDB Link : http://www.imdb.com/title/tt0457400/
IMDB Rating : 5.4/10
IMDB Votes : 4,381 Votes
-------------------------------------------------
V I D E O
-------------------------------------------------
Format : xvid
Codec ID : xvid
Duration : 4h 6mn
Bit rate : 1 060 Kbps
Width : 640 pixels
Height : 272 pixels
Display aspect ratio : 2.35
Frame rate : 25.000 fps
Resolution : 24 bits
Bits/(Pixel*Frame) : 0.244
Stream size : 1.83 GiB (96%)
-------------------------------------------------
A U D I O
-------------------------------------------------
Format : MPEG Audio
Format version : Version 2
Format profile : Layer 3
Codec ID : 55
Codec ID/Hint : MP3
Duration : 3h 14mn
Bit rate mode : Constant
Bit rate : 112 Kbps
Channel(s) : 2 channels
Sampling rate : 22.05 KHz
Resolution : 16 bits
Stream size : 78.0 MiB (4%)
Alignment : Aligned on interleaves
Interleave, duration : 26 ms (0.65 video frame)
Writing library : LAME3.98 (alpha)
-------------------------------------------------
P L O T
-------------------------------------------------
After accidentally uncovering a portal to an alternate
universe peopled with dinosaurs, Sleestaks and other
strange creatures, park ranger Rick Marshall (Will
Ferrell) and his two kids are forced to navigate a
dangerous new world. Brad Silberling directs this
big-screen adaptation of the classic 1970s adventure
series "Land of the Lost," the high-concept, low-budget
fantasy dreamed up by famed children's television
producers Sid and Marty Krofft.

Starring: Will Ferrell, Anna Friel

Director: Brad Silberling


Screenshots:

L@nd of The L0st 2009 DvDRiP XViD   STG   FATAL preview 0
L@nd of The L0st 2009 DvDRiP XViD   STG   FATAL preview 1

related torrents

Torrent name

health leech seeds Size
 


comments (0)

Main Menu