Sports related

Champions League 2009 10 Atletiko Madrid VS Panathinaikos 25 08 2009 English Language

  • Download 5x Faster
  • Download torrent
  • Direct Download
  • Rate this torrent +  |  -

Torrent info

Name:Champions League 2009 10 Atletiko Madrid VS Panathinaikos 25 08 2009 English Language

Total Size: 1.27 GB

Magnet: Magnet Link

Seeds: 0

Leechers: 0

Stream: Watch Online @ Movie4u

Last Updated: 2016-02-01 22:56:39 (Update Now)

Torrent added: 2009-08-25 22:36:15



VPN For Torrents

Torrent Files List


Atletiko Madrid VS Panathinaikos.avi (Size: 1.27 GB) (Files: 5)

 Atletiko Madrid VS Panathinaikos.avi

1.27 GB

 poster.png

289.25 KB

 pao3.jpg

63.08 KB

 pao2.jpg

62.04 KB

 pao1.jpg

52.33 KB
 

tracker

leech seeds
 

Torrent description

Champions League 2009 10   Atletiko Madrid VS Panathinaikos   25 08 2009   English Language preview 0



Source: SBS Channel
Video: 720x400
Audio: M3 192kbps
Language: English
Commentators: English Language





General
Complete name : Atletiko Madrid VS Panathinaikos.avi
Format : AVI
Format/Info : Audio Video Interleave
File size : 1.27 GiB
Duration : 1h 37mn
Overall bit rate : 1 870 Kbps
Writing application : VirtualDubMod 1.5.4.1 (build 2178/release)
Writing library : VirtualDubMod build 2178/release

Video
ID : 0
Format : MPEG-4 Visual
Format profile : Streaming [email protected]
Format settings, BVOP : Yes
Format settings, QPel : No
Format settings, GMC : No warppoints
Format settings, Matrix : Default (H.263)
Muxing mode : Packed bitstream
Codec ID : XVID
Codec ID/Hint : XviD
Duration : 1h 37mn
Bit rate : 1 671 Kbps
Width : 720 pixels
Height : 416 pixels
Display aspect ratio : 16/9
Frame rate : 25.000 fps
Resolution : 24 bits
Colorimetry : 4:2:0
Scan type : Progressive
Bits/(Pixel*Frame) : 0.223
Stream size : 1.13 GiB (89%)
Writing library : XviD 1.2.1 (UTC 2008-12-04)

Audio
ID : 1
Format : MPEG Audio
Format version : Version 1
Format profile : Layer 3
Codec ID : 55
Codec ID/Hint : MP3
Duration : 1h 37mn
Bit rate mode : Constant
Bit rate : 192 Kbps
Channel(s) : 2 channels
Sampling rate : 48.0 KHz
Resolution : 16 bits
Stream size : 133 MiB (10%)
Alignment : Aligned on interleaves
Interleave, duration : 80 ms (2.00 video frames)
Interleave, preload duration : 504 ms
Writing library : LAME3.98r
Encoding settings : -m j -V 4 -q 2 -lowpass 18.6 -b 192




Champions League 2009 10   Atletiko Madrid VS Panathinaikos   25 08 2009   English Language preview 1

Champions League 2009 10   Atletiko Madrid VS Panathinaikos   25 08 2009   English Language preview 2

related torrents

Torrent name

health leech seeds Size
 


comments (0)

Main Menu