Jazz

brenford marsalis braggtown (2006) eac flac

  • Download 5x Faster
  • Download torrent
  • Direct Download
  • Rate this torrent +  |  -
brenford marsalis braggtown (2006) eac flac

Anonymous and Direct Download 300GB+ free


Torrent info

Name:brenford marsalis braggtown (2006) eac flac

Total Size: 434.53 MB

Magnet: Magnet Link

Seeds: 20

Leechers: 25

Stream: Watch Online @ Movie4u

Last Updated: 2011-01-03 20:37:42 (Update Now)

Torrent added: 2008-08-01 09:39:18




Torrent Files List


929047.jpg (Size: 434.53 MB) (Files: 5)

 929047.jpg

63.05 KB

 Branford Marsalis Quartet - Braggtown.cue

1.01 KB

 Branford Marsalis Quartet - Braggtown.flac

434.47 MB

 Branford Marsalis Quartet - Braggtown.log

2.45 KB

 Torrent downloaded from Demonoid.com.txt

0.05 KB
 

Announce URL: http://inferno.demonoid.com:3391/announce

Torrent description

1. Jack Baker 14:13
2. Hope 11:01
3. Fate 8:24
4. Blakzilla 12:40
5. O Solitude 7:46
6. Sir Roderick, the Aloof 5:44
7. Black Elk Speaks 14:18

Jeff "Tain" Watts - drums
Joey Calderazzo - piano
Eric Revis - bass
branford marsalis - Tenor/soprano sax

Tenor/soprano saxophonist Branford Marsalis is a master of the "burnout"--an intense but deliberate and focused style of jazz that has its roots in John Coltrane. Unlike many Trane-ologists, however, Marsalis uses Trane's concepts instead of the master's notes. On Braggtown, named for a neighborhood in Durham, North Carolina, Marsalis delivers a virtual clinic on how to play 21st-century jazz, with drummer Jeff "Tain" Watts, pianist Joey Calderazzo, and bassist Eric Revis. The pieces range from the uptempo "Jack Baker" and "Blakzilla"--Watts's polyrhythmic props to Godzilla--to the reverent rendition of the 17th-century composer Henry Purcell’s "O Solitude," and Revis's intense, long-form composition, "Black Elk Speaks," complete with his impassioned, Mingusian bass solo, with references to Star Trek: The Next Generation. On all of the tracks Marsalis's tone is impossibly brilliant and burnished, and for my money, this recording is the worthy successor to his 1990 masterpiece, Crazy People Music.

Exact Audio Copy V0.99 prebeta 3 from 28. July 2007

EAC extraction logfile from 31. July 2008, 19:23

Branford Marsalis Quartet / Braggtown

Used drive : TSSTcorpCDDVDW SH-S202J Adapter: 5 ID: 0

Read mode : Secure
Utilize accurate stream : Yes
Defeat audio cache : Yes
Make use of C2 pointers : No

Read offset correction : 6
Overread into Lead-In and Lead-Out : No
Fill up missing offset samples with silence : Yes
Delete leading and trailing silent blocks : No
Null samples used in CRC calculations : Yes
Used interface : Installed external ASPI interface

Used output format : User Defined Encoder
Selected bitrate : 1024 kBit/s
Quality : High
Add ID3 tag : No
Command line compressor : C:\Programmi\Exact Audio Copy\FLAC\FLAC.EXE
Additional command line options : -6 -V -T "ARTIST=%a" -T "TITLE=%t" -T "ALBUM=%g" -T "DATE=%y" -T "TRACKNUMBER=%n" -T "GENRE=%m" -T "COMMENT=%e" %s -o %d


TOC of the extracted CD

Track | Start | Length | Start sector | End sector
---------------------------------------------------------
1 | 0:00.00 | 14:12.16 | 0 | 63915
2 | 14:12.16 | 11:02.04 | 63916 | 113569
3 | 25:14.20 | 8:24.25 | 113570 | 151394
4 | 33:38.45 | 12:39.46 | 151395 | 208365
5 | 46:18.16 | 7:48.03 | 208366 | 243468
6 | 54:06.19 | 5:44.72 | 243469 | 269340
7 | 59:51.16 | 14:17.55 | 269341 | 333670


Range status and errors

Selected range

Filename C:\Documents and Settings\HP_Proprietario\Desktop\brenford marsalis - braggtown - (2006) - eac flac\Branford Marsalis Quartet - Braggtown.wav

Peak level 100.0 %
Range quality 100.0 %
Test CRC AED8809A
Copy CRC AED8809A
Copy OK

No errors occurred


AccurateRip summary

Track 1 accurately ripped (confidence 3) [FD5B807E]
Track 2 accurately ripped (confidence 3) [CE2D5CAE]
Track 3 accurately ripped (confidence 3) [AEAF4762]
Track 4 accurately ripped (confidence 3) [98DE1C52]
Track 5 accurately ripped (confidence 3) [F057C52B]
Track 6 accurately ripped (confidence 3) [DAFA1D99]
Track 7 accurately ripped (confidence 3) [61C581DA]

All tracks accurately ripped

End of status report

related torrents

Torrent name

health leech seeds Size
 


comments (0)

Main Menu