Metal

Testament The New Order (1988) EAC FLAC

  • Download 5x Faster
  • Download torrent
  • Direct Download
  • Rate this torrent +  |  -
Testament The New Order (1988) EAC FLAC

Anonymous and Direct Download 300GB+ free


Torrent info

Name:Testament The New Order (1988) EAC FLAC

Total Size: 261.24 MB

Magnet: Magnet Link

Seeds: 0

Leechers: 0

Stream: Watch Online @ Movie4u

Last Updated: 2015-10-02 01:07:53 (Update Now)

Torrent added: 2008-08-01 09:39:18




Torrent Files List


Info.txt (Size: 261.24 MB) (Files: 8)

 Info.txt

2.92 KB

 Testament - The New Order - Back.jpg

142.90 KB

 Testament - The New Order - CD.jpg

60.56 KB

 Testament - The New Order - Front.jpg

102.54 KB

 Testament - The New Order - Inside.jpg

771.35 KB

 Testament - The New Order.cue

1.29 KB

 Testament - The New Order.flac

260.18 MB

 Testament - The New Order.log

2.67 KB
 

tracker

leech seeds
 

Torrent description

Artist: Testament
Album: The New Order
Genre: Thrash Metal
Label: Atlantic
Year: 1988
Playing time: 39:23
Format: FLAC
Source: CD-DA
Ripped using: EAC 0.99 prebeta4

Covers: Front, Back, Inside and CD (Web-found)


Tracklist:

1. Eerie Inhabitants
2. The New Order
3. Trial By Fire
4. Into the Pit
5. Hypnosis
6. Disciples of the Watch
7. The Preacher
8. Nobody's Fault (Aerosmith cover)
9. A Day of Reckoning
10. Musical Death (A Dirge)


LINE UP:

* Chuck Billy: Vocals
* Alex Skolnick: Lead Guitar
* Eric Peterson: Rhythm Guitar
* Greg Christian: Bass
* Louie Clemente: Drums



Review
Taken from Metal-Observer.com
Silencing all concerns that TESTAMENT might have shot their load on "The Legacy", the band follows with a magical sophomore effort in "The New Order". Continuing on with their tried & true formula of melodic Thrash, they offer up ten more songs of blissful Metal-mastery, minus perhaps the cover of AEROSMITH's "Nobody's Fault", which is a bit too happy and/or Rock'n'Roll for me (not to mention their video for that song, *gag*), but it can easily be excused on the merits of the remaining nine songs.
"Eerie Inhabitants" slowly begins with a rather...eerie...intro...perhaps one of my all-time favourite intros of ANY Metal-song, so brooding and menacing, and a perfect prologue to the heavenly Thrash-attack to follow. Following up with the brilliant title track, hitting just as hard as its predecessor, all doubts that TESTAMENT have softened up are quickly put to rest. The band easily sounds as hungry here as on "The Legacy", but their sound has been sharpened a bit. Simply put, it's more professional. There is definitely a more "Rock'n'Roll"-feel on this album compared to the debut, but it's balanced out with equal amounts of Thrash, and thankfully, we get more than enough Skolnick-solos to soothe our cravings.
We also get two outstanding instrumental songs, sounding very dark and melancholic. I have a great fondness for them both, especially Skolnick's beautiful melodies in "Musical Death (A Dirge)". The inclusion of these two songs was an excellent choice, making immortal classics like "Into The Pit" and "Disciples Of The Watch" sound even heavier by comparison. I really love it when Metal-bands aren't afraid to slow it down a bit and get "moody", and TESTAMENT were great at it! Wish they hadn't have stopped doing the ballads after "Low"...
Chuck Billy's vocals are, in a word, sensational here, more refined and sharp as compared to "The Legacy". He can hit some high notes, but his range is best suited in the middle-register, and there is just the right amount of reverb placed on his vocals to make them sound very full and well-rounded. Perhaps my favourite Billy-performance in TESTAMENT's discography...
And definitely in my top 3 of the band's entire catalogue. This is essential Thrash Metal which no one should be without, I shouldn't even have to remind you!



Exact Audio Copy V0.99 prebeta 4 from 23. January 2008

EAC extraction logfile from 1. August 2008, 13:58

Testament / The New Order

Used drive : HL-DT-STDVDRAM GSA-4163B Adapter: 1 ID: 0

Read mode : Secure
Utilize accurate stream : Yes
Defeat audio cache : Yes
Make use of C2 pointers : No

Read offset correction : 667
Overread into Lead-In and Lead-Out : No
Fill up missing offset samples with silence : Yes
Delete leading and trailing silent blocks : No
Null samples used in CRC calculations : Yes
Used interface : Installed external ASPI interface

Used output format : User Defined Encoder
Selected bitrate : 1024 kBit/s
Quality : High
Add ID3 tag : No
Command line compressor : C:\Programmi\Exact Audio Copy\Flac\flac.exe
Additional command line options : -8 -V -T ARTIST=%a -T TITLE=%t -T ALBUM=%g -T DATE=%y -T TRACKNUMBER=%n -T GENRE=%m -T COMMENT=%e %s -o %d


TOC of the extracted CD

Track | Start | Length | Start sector | End sector
---------------------------------------------------------
1 | 0:00.32 | 5:05.10 | 32 | 22916
2 | 5:05.42 | 4:26.43 | 22917 | 42909
3 | 9:32.10 | 4:15.27 | 42910 | 62061
4 | 13:47.37 | 2:46.18 | 62062 | 74529
5 | 16:33.55 | 2:04.52 | 74530 | 83881
6 | 18:38.32 | 5:05.50 | 83882 | 106806
7 | 23:44.07 | 3:38.40 | 106807 | 123196
8 | 27:22.47 | 3:55.38 | 123197 | 140859
9 | 31:18.10 | 4:00.57 | 140860 | 158916
10 | 35:18.67 | 4:02.13 | 158917 | 177079


Range status and errors

Selected range

Filename D:\Testament - The New Order.wav

Peak level 100.0 %
Range quality 100.0 %
Test CRC 061D4F42
Copy CRC 061D4F42
Copy OK

No errors occurred


AccurateRip summary

Track 1 accurately ripped (confidence 7) [790C49BD]
Track 2 accurately ripped (confidence 7) [286D072A]
Track 3 accurately ripped (confidence 7) [2E6E5BE9]
Track 4 accurately ripped (confidence 7) [8891D9B1]
Track 5 accurately ripped (confidence 7) [2F17DB3E]
Track 6 accurately ripped (confidence 7) [0088B131]
Track 7 accurately ripped (confidence 7) [015E31B2]
Track 8 accurately ripped (confidence 7) [789B3970]
Track 9 accurately ripped (confidence 7) [6A74AF19]
Track 10 accurately ripped (confidence 7) [7F40FE94]

All tracks accurately ripped

End of status report

related torrents

Torrent name

health leech seeds Size

Testament The New Order

0 0 90.00 MB 0

Testament The New Order

0 0 36.00 MB 0

Testament The New Order

0 0 539.00 MB 0
 


comments (0)

Main Menu